&title=TΗΞ ƧΞVΞИƧ Ͻ∅DΞ
&artist=Feryquitous
&first=2.87
&des=第̴七̸代̶码̸
&lv_5=7
&inote_5=(150)
{12}
3,5,4,7x<8[12:21],,,,,,,,,,,,,,,,,,,,,,,,4z8[12:5],,,,,,,,,,,,{16}7h[63:17][10:1],,,,,,1,7,2,,4,3,5,4,7,5,6x<4[12:9],,,,,,,,2v5[12:3],,,,,,,,,,,,,,6,5,7,,7,1,,1-5[12:3],8,2z6[16:11],,,,,,,,,,,,,,,5h[12:6],,,,,,,,4,5,2,6,5,7,3,4,1,5,2-8[8:1],,7,,2,5,,,6-2[8:1],,,2V47[12:3],6,,4x,,,,,,,,3,8,1,,1,7,,7,8>3[8:1],6,,,4,,,7,,,5h[24:3]/6h[24:3],,,6/5p1[8:1],,,5/6<8[10:1],,,,,,,,2,1,3,8,5,6,3,4,1,7,2-4[10:1],,1,,2,6,,,7-1[10:1],,,5,7,,4-6[8:1]*-7[8:1],,,,,,,,1,8,2,,2,4,,4,3V52[12:3],6,,,37,,,1,,,8-4[8:1],,,1,,,2-5[8:1],,,,,,,,6,5,7h[16:2],,4,7,5,6,2,4,3x>5[12:5],,,,,,,4,,,4v7[8:1],,,,,,2,,2h[16:4],,,,6,2,6,,4,5h[16:3],,,3h[16:2],,4V68[12:3],,3,,,,,2,,,2-6[8:1],,,,1,,8,,7h[16:3],,,6h[16:3],,,5h[16:3],,,4h[16:3],,,3h[16:2],,
2>8[12:5],,,,,,,1,,,1v6[8:1],,,,,,3,,3h[16:4],,,,7,1,7,,1,8h[16:3],,,2h[16:2],,1V75[12:3],,2,,,,,3,,,3-7[8:1],,,,4,,5,,6h[16:3],,,7h[16:3],,,8h[16:3],,,1,8pp3[12:24],2,4,3,5xpp4[12:9],,,,,,,,,,,,,,,,,,,,,,,,7,,,,6,,,,5pp6[12:8],,,,,,,,,,,,,,2q7[12:5],,,,,,,,,,8>3[12:3],,,,,,,,4q5[12:8],,,,,,,,,,,,,,6q3[12:5],,,,,,,,,,4<7[12:3],,,,,,,,8q1[12:8],,,,,,,,,,,,,,2>7[12:5]*q7[12:5],,,,,,,,,,,,,,1-5[8:1],,,,5b/1x,,,,,,6,4b/7b,,,4b/7b,,3,3,5h,5h,1,4,2b,7,5b,6,3,5b,2,4,3b,7,1-5[8:1],5,8,7,1bV74[16:3],,,,4,3,2,1b,,,1b/5b,,6,6,4h,4h[16:3],,,7b,3,4,2b,,4/5b,,,6/1bq7[12:2],,,,,,8x-4[8:1]
,,,,,,,1b,,,5b/2b,,6,6,4h,4h,8,5,7b,2,4b,3,6,4b,7,5,6b,2,8-4[8:1],4,1,2,8bV25[16:3],,,,5,6,7,8b,,,8b/4b,,3,3,5h,5h[16:3],,,2b,6,5,7b,,5/4b,,,2/6b,,{12}3,5,4,{8}7x<8[12:21],,,,,,,,,,,,,,,,,
{16}4,,,4,,,4,,,4-2[10:1],,,4z8[12:9],,,,7,,,7,,,7,,,7,,,6V48[12:7],,,,1,,,1,,,1,,,1-3[10:1],,,1s5[12:9],,,,7,,,7,,,7,,,7,,,6V84[12:7],,,,3,,,3,,,3,,,3-1[10:1],,,3V57[12:5],,,,8,,,1,,,2,,,3,,,4,,1x-5[16:3]/4,,,,,,3,2,1b-5b[8:1],,,1b/5b,,,7h[16:2],,6,7,4,5,2,2,4,3,8,1,6,6,5,7,3,4,1,2,5,6,3,4,8,7,5,5,6,2,8,1,4,3,6,5,7,3,,3,4,2,6,5,,47,,8,3,4,1,2,5,6,3,4,8,7,
5b-1[8:1],,,4b/6b,,,2h[16:2],,3,2,5,4,7,7,5,6,1,8,3,3,4,2,6,5,8,7,4,3,6,5,1,2,4,4,3,8,1,7,5,6,3,4,2,6,,6,5,7,3,4,,52,,1,6,5,8,7,4,3,5,6,1,2,7,8,4,3,1,2,6,5,8x<1[12:9],,,,,,,,,,,,,,,,,,4h[16:2],,8,8,4,,2b-5[8:1]/6b-1[8:1],,,,2b-6[8:1]/6b,,,,,,3b-5[10:1],,,1b-7[10:1],,,2b-6[10:1],,,6b-4[10:1],,,8b-2[10:1],,,7b-3[10:1],,,4b-6[10:1],,,,1b,,,,2-4[10:1],8v5[10:1],3-1[10:1],7,,,,,6h[24:3],,,4h[24:3]/7h[24:3],,,1h[24:3]/2h[24:3],,,{32}2,5,2,,6,,{24}2,3,4,{16}7,7h[8:1],,5,5,6,3,4,2,5,4,,37,,
{16}82,,6,{24}1,2,3,{16}5,5,,64,64,,78,,2,1,4,6,5,7,3,4,4,2,5,1b,,7,2b/8,,82,7b/3b,,
{16}45,,3,{24}7,6,5,{16}1,1,,4,3,,25,,7,1,6,4,5,2,2,6,5,7,7,
2,1,3,4,8,7,5,6,3,2,1,84,,84,15,26,37,48,,12,,8,2,4,
1,6,8,7,
5,6,3,4,
2,8,1,8,
{12}3,5,4,{8}7x<8[12:21],,,,,,,,,,,,,,,,,
{16}4h[16:3],,,7h[16:3],,,8,,,7-1[10:1]/8-6[10:1],,,,,,,,,,,3,4,1,7,5,6,4,5,2,4,3x>5[12:9],6,5h[16:1],,,,,,7v4[12:3],,,,,,,,,,,,,,3,4,2,6,5,8,,8-4[12:3],1,7s3[16:11],,,,,,,,,,,,,,,4h[12:6],,,,,,,,5,4,7,5,6,8,4,3,1,2,7b
,7?s3[12:7],,,,,,,,,,,,,,,,3?s7[12:7],,,,,,,,,,,,,,,,7?s3[12:7],,,,,,,,,,,,,,,,3?s7[12:7],,,,,,,,,,,,,,,,E
