&title=Crush Anecdotes - Terror Campus
&artist=shadow_bling
&first=0.121
&des=TragiC
&lv_5=14+
&des_5=TragiC
&inote_5=
(180){4},,,,,,,,5/3h[8:1],
5/3h[8:1],5/3h[8:1],5/3h[8:1],
4/2h[8:1],4/2h[8:1],4/2h[8:1],{8}4/2h[8:1],5,
{4}4/6h[8:1],4/6h[8:1],4/6h[8:1],4/6h[8:1],
5/7h[8:1],5/7h[8:1],5/7h[8:1],7h[8:1]/5-1[8:1],
8b,8/E2/D2,8,8/E4/D4,
7,7/E6/D6,7,E4/D4/7<4[4:1],
3b,2,{16}1,8,1,8,1-6[2:1]*z5[2:1],8,1,8,
,,,,,,,,,,,,{8}8/7-3[8:1],1,
7b/2-5[8:1],2,6-2[8:1],6,4-1[8:1],4,{4}8-6[8:1],
8/5-1[8:1],5/2-4[8:1],2/8-6[8:1],{8}5-1[8:1],4,
5/3-6[8:1],3,8-4[8:1],8,5-2[8:1],5,1<6[8:1],8,
{4}7/1>4[8:1],3/1-5[8:1],5/1,{8}4/6-4[8:1],7/3,
{4}2/6-2[8:1],3/6-8[8:1],6/4,3/1-3[8:1],
4/1-5[8:1],5/1-7[8:1],1/6,5/4-6[8:1],
3/4-2[8:1],7/4-8[8:1],4/1,2h[4:3],
4b,6b,{8}8b,{16}1,1,{4}1-3[8:1],
{8}4-6[8:1],4,7-3[8:1],7,8,8,1-4[8:1],4-8[8:1],
1,5,5-1[8:1],6,{4}7/5,{8}8-6[8:1],8,
5-3[8:1],5,2-6[8:1],2,1,1,8-5[8:1],5-1[8:1],
8,4,4-8[8:1],3,{4}2b/4>1[8:1],6b/4<7[8:1],
{8}4/8b-4[8:1],8,5-2[8:1],5,1-6[8:1],1,7,7,
8-5[8:1],5-1[8:1],8,4,{4}3h[4:1],{8}8,8,
7/1,7/1,2/6,2/6,{16}3,5,3,5,4<4[4:3]*>4[4:3],4,4,4,
,,,,,,,,,,,,,,,,{4}5/3h[2:1],
{8}4-6[8:1],4,{4}4-2[8:1],4-8[8:1],
{8},,1,1,7,7,{16}5-1[8:1],6,5,6,
{4}5b,{8}8-6[8:1],8,{4}8-2[8:1],8-4[8:1],
{8},,3,3,5,5,4-8[8:1],3,
{4}2,{8}1-3[8:1],1,{4}1-7[8:1],1-5[8:1],
,6h[8:1],7h[8:1]/5h[8:1],{8}4h[8:1]/8-4[8:1],8,
{4}3-1[8:1],{8}5-7[8:1],5,{4}5-2[8:1]*-3[8:1],5-8[8:1],
{8},,1,1,7,7,5-2[8:1],5,
{4}6,{8}7,7,1,1,8-6-1-5[8:5],8,
{4}3b,3b,3b,6/4,
{8}3/5,3,4-2[8:1],4,{4}5-1[8:1],6-8[8:1],
{8},,1,1,7,7,3,3,
6/4,6,5-7[8:1],5,{4}4-8[8:1],3-1[8:1],
{8},,8,8,2>4[8:1],2,{4}5,
{16}6,5,{8}6,{16}4,5,{8}4,{16}7,5,{8}7,{16}3,5,{8}3,
{16}8,5,{8}8,{16}2,5,{8}2,{16}4,1,5,2,6,3,7,4,
{4}8h[8:1],8h[8:1],{8}8h[8:1],{32}E2,E3,E4,E5,E6,E7,E8,E1,E2,E3,E4,E5,
{2}Ch[4:1],{8}1/7,{16}8,8,{4}8<5[8:1],
{16}4,3,2,1,4,8,4,8,5,6,7,8,2,3,4,5,
8,7,6,5,3,4,3,4,2,5,2,5,1,6,1,6,
8,1,2,3,8,4,8,4,1,8,7,6,4,3,2,1,
{8}8/4,5-3[8:1],6,5-1[8:1],7,5,8,{16}2,2,
8,7,6,5,2,4,2,4,1,2,3,4,6,7,8,1,
4,3,2,1,7,8,7,8,6,1,6,1,5,2,5,2,
4,5,6,7,1,2,3,4,8,7,6,5,3,2,1,8,
4,1,4,1,4,1,4,1,5,2,6,3,7,4,8,5,
{4}1h[8:1],1h[8:1],1h[8:1],1h[8:1],
2h[8:1]/8h[8:1],7h[8:1]/3h[8:1],{8}6v1[8:1]/4v1[8:1],6/4,{16},,,,2,
8,2,8,3,7,3,7,4,6,4,6,3,5,3,5,
2,6,2,6,1,7,1,7,{8}8x,8x,7x/1x,2x/6x,
{12}3,5,3,8,5,8,2,4,2,7,5,7,
1,4,1,6,4,6,3,5,2,6,1,7,
8,8,8,8,8,8,8,8,8,8-4b[4:3],8,8h[12:7],
,,,,,,,,,,,,{4}7h[6:1]/5h[12:1],
7h[6:1]/5h[12:1],7h[6:1]/5h[12:1],7h[6:1]/5h[12:1],
6h[12:1]/4h[6:1],6h[12:1]/4h[6:1],4h[6:1]/6h[12:1],6h[12:1]/4h[6:1],
5h[6:1]/3h[12:1],5h[6:1]/3h[12:1],5h[6:1]/3h[12:1],5h[6:1]/3h[12:1],
4h[12:1]/2h[6:1],4h[12:1]/2h[6:1],2h[6:1]/4h[12:1],4h[12:1]/2h[6:1],
{12}1b,5,5,2,4,4,1,5,5,2,4,3,
8b,4,4,7,5,5,8,4,4,7,5,6,
2b,4,4,3,5,5,2,4,4,3,5,4,
7b,5,5,6,4,4,7b,5,5,6,4,5,
3,4,3,5b,4,5,3b,4,3,5,4,4,
6,5,6,4b,5,4,6b,5,6,4,5,5,
2,4,2,6b,4,6,2b,4,2,5,4,4,
7,5,7,3b,5,3,7b,5,7,4,5,5,
3,4,2,6b,4,5,2b,4,3,5,4,4,
6,5,7,3b,5,4,7b,5,6,4,5,3,
1bx-4[8:1],2,8,1,,7,5b-8[8:1],6,4,5,,,{4}1,
2/7,B7/C/B2,{12}4x/5x,,3,
4,2,4,3,5,3,4,1,4,3,6,3,
4,8,4,3,7,3,4,7,4,3h[12:1],,6,
5,7,5,6,4,6,5,8,5,6,3,6,
5,1,5,6,2,6,5,2,5,6h[12:1],,2,
7,5,7,8,4,8,7,5,7,2,4,2,
1,5,1,2,4,2,7,6,8,1,3,2,
5b-2[8:1],4,6,5,,7,1b-6[8:1],8,2,1,,5,
7b,4,6,3,5,2,{6}4h[6:1],{12}1,5,5,5,
4b,6,8,4,2,8,4,4,4,5,3,1,
2,8,6,7,4,5,2,3,1,7h[12:1],,4,
5b,3,1,5,7,1,5,5,5,4,6,8,
7,1,3,2,5,4,7,6,8,2h[12:1],,4,
2b,6,4,8,8,8,2,2,2,4,3,7,
5,8,1,4,2,6,5,7,1,8h[12:1],,2,
4b-1[8:1],3,5,4,,6,8b-4[8:1],7,1,8pp5[8:3],,2,
{4}8,3<8-2-4[2:1],{2}6xh[4:1],
{1}7b>3-5v2b[2:7],
,7x-1v6[2:3],
,5/1qq3[2:3],
{4}4,4,5,5,
6/4,5/3,{8}4/2,{16}1pp4[8:5],8,{8}1,7h[8:5],
,,,,,8x,7x,6x,
3b/5-8[8:1],{16}4,2,{8}5,1,7/2-6[8:1],{16}3,4,{8}2,5h[8:1],
7xh[8:1],{16}4,4,8,5,1,6,2,7,3,8,{8}4h[8:1],{16}7,7,
{8}5-2[8:1],{16}4,6,{8}5,7,3/8-4[8:1],{16}1,2,{8}8,3h[8:1],
5xh[8:1],{16}1,1,4,2,5,3,6,4,7,5,{8}8h[8:1],1,
2/7-2[8:1],{16}6,5,{8}7,4,3/1-5[8:1],{16}2,8,{8}1,7h[8:1],
4xh[8:1],{16}8,8,5,1,4,8,3,7,2,6,{8}1h[8:1],5,
2b/4-8[8:1],{16}3,5,{8}4,6,7b/1-5-7[4:1],{16}8,2,{8}1,3h[8:7],
,,,,,,2-5[8:1],1,
2b/8b-4[8:1],7,8/3-8[8:1],2,3/5-1[8:1],6,5/2-4[8:1],3,
8/2-8[8:1],{16}7,7,{8}2-6[8:1],{16}6,6,{8}2,{16}5,5,{8}7-4[8:1],8,
7/1-5[8:1],2,1/6-1[8:1],7,6/4-8[8:1],3,4/7-5[8:1],6,
1/7-3[8:1],{16}2,2,{8}7,{16}4,4,1,8,7,6,{8}5/4-7[8:1],3,
4b/2-6[8:1],3,2/8-4[8:1],7,8/3-7[8:1],2,3/5-8[8:1],6,
5/1b,{16}2,2,1,3,8,4,7-3[8:1],5,6,4,{8}7,5h[8:1],
2,1,8/4,7/3,{16}6,2,5,1,{8}4h[1:1],8x<2[8:5],
,,,,,,,,5/1,
1,4,4,3-5[8:1],5-2[8:1],3,6,
7,8,1,1,{4}2/8,{8}3/7,3/7,
4/6,6,3,3,7-4[8:1],4-8[8:1],7,3,
2-6[8:1],2,1,8,{4}7h[8:1]/5h[8:1],{8}7/5,{16}6,4,
{8}8b,8,5,5,6-4[8:1],4-7[8:1],6,3,
2,1,8,8,{4}7/1,{8}6/2,6/2,
5/3,3,6,6,2-5[8:1],5-1[8:1],2,6,
{4}7h[4:1],{16}8,6,1,5,2,4,{8}3h[8:1],{16}2,1,8,7,
{8}4/6-2[8:1],3<6[8:1],6<1[8:1],3,{4}8,{8}4,5,
2/6-2[8:1],3-5[8:1],6,3,{16}1,8,7,6,{8}5/3,3-7[8:1],
2/6-4[8:1],3-1[8:1],6,3,6-8[8:1],8-4[8:1],6,1,
2-4[8:1],5-1[8:1],2-6[8:1],5,2,8,7/5,7/5,
4/6b,3,4/2,5,6/3,2,1/5,6,
7/4b,3,2/6,7,8/5,4,3/7,8,
{16}2,1,{8}3h[8:1],{16}5,4,{8}6h[8:1],{16}7,8,1,2,3/7,4/8,{8}5/1<4b[4:1],
,1,2-6[8:1],3-8-5[4:1],
E
