&title=Platinum
&artist=jioyi
&first=0
&des=Dororo
&lv_5=14
&inote_5=(182)
{1},
{16}3^5[4:1],,,,B4,,,,,,6,,6,,,,
{16}7^4[4:1],,,,E6,,,,,,2,,2,,,,
{16}1>5[4:1],,,,B3,,,,,,8,,8,,,,
{16}1xs5b[2:1]/7xv6-4[2:1],,,,,,,,,,,,,,,,
{16}3xh[8:1],,4,3xh[8:1],,4,3xh[8:1],,4,3xh[8:1],,4,3x,,5,4,
{16}6xh[8:1],,5,6xh[8:1],,5,6xh[8:1],,5,6xh[8:1],,5,6x,,4,5,
{16}2xh[8:1],,4,2xh[8:1],,4,2xh[8:1],,4,2xh[8:1],,4,2x,,5,4,
{16}7xh[8:1],,5,7xh[8:1],,5,7xh[8:1],,5,7xh[8:1],,5,7x,,4,5,
{16}3xh[8:1],,4,2xh[8:1],,4,1x,,6xh[8:1],,5,7xh[8:1],,5,8x,,
{16}2xh[8:1],,4,1xh[8:1],,4,8x,,7xh[8:1],,5,8xh[8:1],,5,1x,,
{16}3x/4x,,34,,25,,25,,16,,16,,7/8-5[8:1],,78,,
{16}1x,,,,3,4,3,,5-1[8:1],,4,,6b/5b,,,,
{16}7h[4:1]/8^3[8:1],,,,,,6,6,4-1[8:1],,,,8,,8,,
{16}7,1,7,1,7-3[8:1],,,,3,,1h[8:3],,4h[4:1],,,,
{16},,,23,,,58,,5/8^3[8:1],,6^8[8:1],,,,,,
{16}4V26b[8:3],,,,6-2[8:1],,6,,6-1[8:1]*-3[8:1],,,,,,,,
{16}28,,,,34,,7,5,7^4[8:1],5,7,,1,,,,
{16}2,3,2,3,2v4[8:1],,4V68[4:1],,6-1[8:1],,,,,,,,
{16}A2/B2/C,,,,A3/B3/C,,,,A4/B4/C,,,,A5/B5/C,,,,
{16}A6/B6/C,,,,A7/B7/C,,,,1,8,1,8,2b/7b,,,,
{16}1-3[8:1],,2,,1-5[8:1]/7,,8,,1-3[8:1]/2,,2,,1-5[8:1]/7,,8,,
{16}1-3[8:1]/2,,2,,17,,8,,1-6[8:1]/4,,1/4-1[8:1],,,,,,
{16}7p3[8:1],,7,,3-6[8:1],,2,,7p3[8:1],,7,,3-6[8:1],,2,,
{16}7p3[8:1],,7,,3-6[8:1],,2,,1xw5[8:1],,1x,,Cf/B7/B3,,,,
{16}8-6[8:1],,7,,8-4[8:1]/2,,1,,8-6[8:1]/7,,7,,8-4[8:1]/2,,1,,
{16}8-6[8:1]/7,,7,,82,,1,,8-3[8:1]/5,,8/5-8[8:1],,,,,,
{16}2-4[8:1],,1,,5-2[8:1],,6,,1-5[8:1],,8,,5,,6,,
{16}7,5,7,4,7,3,7,2,7,1,7,8,1xb/6xb,,,,
{16}3,4,2,,7,8,,6,3,4,2,,7,8,,6,
{16}2x,3,4,8x,7,6,1x,2,3,7x,6,5,4/8b,,,,
{16}7,5,6,,4,5,,3,7,5,6,,4,5,,3,
{16}7x,6,5,2x,3,4,8x,7,6,1x,2,3,4/8b,,,,
{16}6,5,7,,2,1,,3,6,5,7,,2,1,,3,
{16}7x,6,5,8x,7,6,2x,3,4,1x,2,3,4/8b,,,,
{16}3,4,3,4,2,4,2,4,1,4,1,4,8,4,8,4,
{16}7xh[8:1]/5xh[8:1],,,4xh[8:1]/5xh[8:1],,,2xh[8:1]/4xh[8:1],,,7x/8b,,,1b/2x,,8x^5b[8:1]/1x^4b[8:1],,
{16},,B5/B3/A3/E4/E5f/E6/B4/B6/A4/A5/A6/D4/D5/D6,,,,,7,1,4,2,,6,8,,7,
{16}2x,4,3,5x,4,6,2x,4,3,5x,4,6,1b,,,,
{16}7,5,6,,8,4,,3,7,5,6,,8,4,,3,
{16}6x,1,5,2x,7,4,6x,1,5,2x,7,4,1b,,,,
{16}8,5,7,,3,1,,2,8,5,7,,3,1,,2,
{16}7x,5,6,3x,5,4,7x,5,6,3x,5,4,8b,,,,
{16}1,7,2,6,1,7,3,5,2,6,3,5,1-5[8:1],7,2,6,
{16},,,,46,,28,,,,7h[8:1],,5h[8:1],,3h[8:1],,
{16}1b^4qq5[4:7],,,,,,,,,,,,,,,,
{16}E7,,,,,,,,,,,,,,,,
{16}8>4qq6[4:7],,,,,,,,,,,,,,,,
{16}E7,,,,,,,,,,,,,,,,
{16}7>4qq8[4:7],,,,,,,,,,,,,,,,
{16}E7,,,,,,,,,,,,,,,,
{16}6<4qq1[4:7],,,,,,,,,,,,,,,,
{16}E7,,,,,,,,,,,,,,,,
{16}8,,,,8h[4:3],,,,A5/E5,,,,,,,,
{16}2,,2h[8:7],,,,A5/E5,,,,,,,,,,
{16}6,,,,6h[4:3],,,,A5/E5,,,,,,,,
{16}4,,4p6[8:3],,,,A5/E5,,,,,,,,,,
{16}1,,,,1h[4:3],,,,A4/E5,,,,,,,,
{16}7,,7h[8:7],,,,A4/E5,,,,,,,,,,
{16}3,,,,3h[4:3],,,,A4/E5,,,,,,,,
{16}Ch[2:1],,,,,,,,1^4[8:1],,,,8^5p4[1:1],,,,
{16}5xh[1:2],,,,,,,,,,,,,,,,
{16},,,,,,,,,,,,,,,,
{16}7h[1:1],,,,,,,,,,,,,,,,
{16}3h[1:1],,,,,,,,,,,,,,,,
{16}4h[1:2],,,,,,,,E6,,,,,,,,
{16}E5,,,,,,,,E4,,,,,,,,
{16}2h[4:3],,,,6h[2:1],,,,,,,,,,,,
{16}8b,,,,,,,,7xv4[8:1]/1xv4[8:1],2x/6x,3x/5x,,,,,,
{16}2x-5[8:1]/4x,,24,,2-6[8:1]/4,,,,2/6qq1-3<8[1:1],,,,7,,7h[8:7],,
{16},,,,,,,,,,,,,,,,
{16}7x-4[8:1]/5x,,75,,7-3[8:1]/5,,,,7/3pp1-7^4-2b[1:1],,,,1,,1h[8:7],,
{16},,,,,,,,,,,,,,,,
{16}2x-5[8:1]/8x-5[8:1],,28,,2/8-4[8:1],,,,7h[4:1]/8,,,,5,,37,,
{16}2,,2,4,3,,7,,7,5,6,,B4,B6,B2,B8,
{16}Chf[8:7],,,,,,,,,,,,,,1b,,
{16},,,,,,,,2x-7[8:1]/8x-3[8:1],7x/3x,6x/4x,,,,,,
{16}6h[8:1]/2-5-3^8[4:5],,,,6h[8:1],,,,6h[8:1],,,,6h[8:1],,,,
{16}6h[8:1],,,,6h[8:1],,,,6h[8:1],,,,6,,1,2,
{16}3h[8:1]/7-4-6^1b[4:5],,,,3h[8:1],,,,3h[8:1],,,,3h[8:1],,,,
{16}3h[8:1],,,,3h[8:1],,,,3h[8:1],,,,3,,8,7,
{16}6/2-5[8:1],,2,,8-4[8:1],,8,,2,,2,,37,,6,5,
{16}7-4[8:1],,7,,1-5[8:1],,1,,7,,7,,62,,3,4,
{16}2,1,2,8,2,7,2,6,2,5,2,4,1V35[8:1]*V75[8:1],,5w1[8:1],,
{16},,,,,,3,7,4,6,2,8,3xb/Cf,,,,
{16}1x-7[8:1]/2x-6[8:1],,38,,1^4[8:1]/2,,,,1/5qq6[4:1],,,,56,,7-1[8:1],,
{16},,7-3[8:1],,3-5[8:1],,7/2V84[4:1],,,,2,,6,,7,,
{16}5/8-5[8:1],,,3,8,,4-7[8:1],,,1,4,,8,,2,,
{16}4/1-4[8:1],,,6,1,,5-2[8:1],,,8,5,,1,,7,,
{16}8-2[8:1]/7-3[8:1],,61,,8^5[8:1]/7,,,,8/4pp3[4:1],,,,43,,2-8[8:1],,
{16},,2-6[8:1],,6-4[8:1],,2/7V15[4:1],,,,7,,3,,2,,
{16}14,,5-2[8:1]/8-3[8:1],,67,,8b/5b,,,,14,,7b/8b,,,,
{16}58,,2b/1b-5[8:1],,,,16,,{24}6,7,8,1,2,3,{16}4/E8f/B7/B8/E1/E7/A7/A8,,,,
{16}2x-5[8:1]/4x-8[8:1],,15,,2/4^1[8:1],,,,{24}4/8-3[8:1],7,6,{16}5,,87,,6-1[8:1],,
{16}1-5[8:1],,5-2[8:1],,4,,3V51[4:1],,,,1,,8,,7,,
{16}2-4[8:1]/6,,1,8,2,,7-1[8:1],,6,5,7,,2,,2,,
{16}7-5[8:1]/3,,8,1,7,,2-8[8:1],,3,4,2,,6,,6,,
{16}7-4[8:1]/5-1[8:1],,84,,7/5^8[8:1],,,,{24}5/1-6[8:1],2,3,{16}4,,12,,3,,
{16}4,7,5,6,3,4,2,5,4,6,5,7,3,5,2,4,
{16}5xh[8:1]/1xh[8:1],,,3h[8:1]/4h[8:1],,,7h[8:1]/5h[8:1],,,4h[8:1]/1h[8:1],,,6bh[8:1]/5bh[8:1],,,2bh[8:1]/4bh[8:1],
{16},,8bh[8:1]/5bh[8:1],,,26,2b/6b,,{32}3-8[8:1],4,5,6,7-4[8:1],8,1,2,{16}A3f/D3/E3,,,,
{16}1-5[8:1],,5,,8^6[8:1],,6,,2^4[8:1],,4,,1,,1x-7-2-6-3-5b[8:7],,
{16},,,,,,,,,,,,,,,,
{16},,,,,,,,,,,,,,,,
E
