&title=僕は…
&artist=あたらよ
&first=0
&des=Azuki
&lv_6=13
&inote_6=(180)
{1},,
{16}7pp2[4:8]/2,,,,3,,3,,,,,,,,,,
{16}2,,,,3,,3,,,,,,,,,,
{16}2^7[8:9],,,,3,,3,,,,,,,,,,
{16}3,,,,4,,4,,,,5,,5,,,,
{16}6,,,,5,,,,4,,,,3,,,,
{16}25,,,,47,,,,15,,,,37,,,,
{16}45,,,,36,,,,27,,,,18,,,,
{16}1,,6,,5,,4/7w3[8:1],,,,,,,,5b/1b,,
{16},,28,,7^4[8:1],,,,8,,1,,2^7[8:1],,3,,
{16},,5,,4,,3,,17,,6,,5,,4h[4:1],,
{16},,3,,2-5[8:1]/5,,,,1,,8,,7-2[8:1],,6,,
{16},,4,,5,,6pp6[8:2],,,,1,,2,,3b,,
{16},,46,,53,,2<6[16:4],,,,6>2[4:1],,,,2,,
{16},,1,,8,,7V13[4:1],,,,3V57[4:1],,,,7,,
{16},,8,,1,,2-4[8:1],,,,6-2[8:1],,7,,8,,
{16},,7,,62,,3,,5,,4,,6-4[32:3],,1b,,
{16},,2,,3h[4:1],,,,4-6[32:3],,2,,3,,,,
{16}7-2[8:1],,2,,3,,,,4,,6,,5,,7h[8:3],,
{16},,8,,1,,,,2pp4[8:1],,7,,6,,,,
{16}3qq1[8:1],,7,,6,,,,5,,3,,4,,2h[8:2],,
{16},,1h[8:1],,3h[4:1],,,,4v7[8:1],,2,,3,,,,
{16}8v5[8:1],,2,,3,,,,4,,6,,5,,7h[8:3],,
{16},,,,1,,,,2-6[8:1],,2,,8,,7,,
{16}5-1[8:1],,5,,4,,3,,2,,8,,2,1,2b^5[32:5],,
{16},,7,,6h[4:1],,,,5^2[8:1],,8,,7,,,,
{16}1^4[8:1],,8,,7,,,,6,,5,,8,,3h[8:3],,
{16},,4,,5,,,,6v8[8:1],,2,,3,,,,
{16}7v5[8:1],,2,,3,,,,4,,6,,5,,8h[8:2],,
{16},,2h[8:1],,6h[4:1],,,,5p1[8:1],,7,,6,,,,
{16}8q4[8:1],,7,,6,,,,5,,3,,4,,1h[8:3],,
{16},,,,6,,,,7,,8,,7,,1,1,
{16}25,,6,,35,,2,,36,,7,,46,,3b>6[16:20],,
{16},,5,,5,,,,1,,1,,,,7,,
{16}7,,,,4,,4h[4:1],,,,5,,5,,4,,
{16}5,,46,,5h[4:1],,,,3,,4,,47,,6,,
{16},,2^7[8:1]/5,,3,,,,6h[8:1],,5h[8:1],,4h[8:1],,3b>6[4:5],,
{16},,5,,5,,,,1,,1,,,,7,,
{16}7,,,,4,,4h[4:1],,,,6,,6,,5b^3[32:3],,
{16},,7/5,,
1^7[32:3],,,,
4^2[32:3]
,,,,1^6[8:1]
,,,,
{16}4^1[8:1],,4,,8^5[8:1],,8,,3>5[16:4],,3,,5,,7b,,
{16},,3,,25,,8,,57,,6,,3,5,1h[8:9],,
{16},,,,,,8h[8:5],,,,,,,,,,
{16},,,,,,,,,,,,,,,,
{16},,,,,,,,3v8[8:1]/4-7[8:1],,,,,,,,
{16}1bV73[16:3],,,,7/1,,6-2[8:1],,,,4,,3-8[8:1]*-6[8:1],,,,
{16}3,,,,7V15[16:3],,,,5V37[16:3],,,,3,,,,
{16}1-5[8:1],,,,1/5,,7-3[8:1],,,,1,,2v4[8:1]*v8[8:1],,,,
{16}2w6[8:1],,,,,,,,48,,48,,37,,26,,
{16}8V63[8:2],,,,3V58[8:2],,,,8V62[8:2],,,,2V48[8:2],,,,{16}8<8[16:7],,,,,,,,,,,,4,,,,
{16}8-4[8:1],,,,8/3,,2-6[8:1],,,,8,,7v4[8:1]*v2[8:1],,,,
{16}7pp2[8:3],,,,,,,,3,,4,,5-1[8:1],,,,
{16}8bV26[16:3],,,,2/8,,3-7[8:1],,,,5,,6-1[8:1]*-3[8:1],,,,
{16}6,,,,2V84[16:3],,,,4V62[16:3],,,,6,,,,
{16}8-4[8:1],,,,8/4,,2-6[8:1],,,,6,,7-3[8:1],,8,,
{16}7w3[8:1],,,,,,,,51,,51,,73,,,,
{16}2^5[8:1],,,,2,,6^3[8:1],,,,1,,2^5[8:1],,,,
{16}5>1[8:1],,,,6,,,,7^2[8:1],,,,3,,,,
{16}5qq3[64:9]/4,,,,5,,4>7[64:18],,,,5,,,,4h[4:1],,
{16},,,,8-2[8:1]*-6[8:1],,,,8-4[8:1],,,,8,,,,
{16}3q7[16:3],,,,,,6p1[16:3],,,,,,3v8[16:3]*-7[16:3],,4b,,
{16},,,,,,,,3,,7b,,5,,6bpp5[8:19]/4bqq5[8:19],,
{16},,,,,,,,,,,,,,,,
{16},,,,,,,,,,,,,,,,
