&title=chromatolight
&artist=orangentle
&first=0
&des_1=aster
&des_2=aster
&des_3=aster
&des_4=aster
&des_5=aster
&lv_5=14+
&des_6=aster
&des_7=aster
&des=aster
&inote_5=(178)
{4},,,
{32}8bx,7,6,5,4,3,2,1,
{32}6p4[2:1]/8h[2:3]bx,B6,Cf,B2,,,,,
{4},,,
{6}7bx,6bx,5h[2:1]bx,
{32},,,,,,,,3-7[8:1],2,1,8,7,6,5,4,
{32}3q5[2:1],B3,Cf,B7,,,,,
{4},,,
{16}6b,,,7b,,,8b-4-2-5-7[4:1]b,,
{4},,
{16}6bh[4:11]/3b,,,2b,,,1b-5-7-4-2[4:1]b,,
{2},
{1}Ch[1:2]f,,
{16}1b,,,,
{16}E1,E2,B7,B3,B8,B2,E7,E4,E8,E3,B5,,,,,,
{16}6,4,6,5,4,3,2,1,8/7,6,5,4,
{6}8q4[8:1],8/4q8[8:1],,
{4},2/6h[2:1],,5h[4:1],
{8}4h[8:1],3b,,,
{16}2/5,,3,3,4,,3,3,4,,3,3,4,,4,5,6,,6,6,5b,,6,6,5b,,6,6,5b,,3,4,3h[4:1]b,,,,
{16}4,5,6,7,4,5,6,7,5,6,7,8,6b,7,8,1,7b,8,1,2,8b,1,2,3,1b,2,3,4h[8:1],,,,,
{12}1,8h[12:1],,3,8h[12:1],,5,8h[12:1],,7,8h[12:1],,2,8h[12:1],,4,8h[12:1],,6,8h[12:1],,
{16}1,,1>5[8:1],,,,
{32}1/5,6,7,8,1-5[8:1],,,,,,,,1/4,3,2,,8,7,6,,
{8}4h[8:3]b,,,5h[8:3]b,,,
{24}6,7,8,1,2,3,
{6}4h[8:1]/Cf/B7/B8,,6h[8:1]/Cf/B2/B1,,,,2h[8:1]/Cf/B7/B6,,8h[12:5]/Cf/B4/B5,
{4},6>3[4:3],6b,,3>8[8:3],,8<5[8:3],,5>2[8:3],,2<7[4:1],7<4[4:1],,3,
{12}1b/8b,,,2,7,2,6,3,6,4,5,4,
{4}C,,
{8},6,5,4,3q6[1:1],,,,,,,1,1pp4[1:1],,,,,,7,8,1qq6[1:1],,,,,,,,5-2[4:1],,,,,
{8}1,8,7,6p3[1:1],,,,,,,1,1pp4[1:1],,,,,,7,6,5<8[2:1],,5bqq7[1:1],,,,,,,,,,,
{8}1,3,5,
{2}7h[2:1],6h[2:1],5h[2:1],4h[2:1],2h[2:1],8h[2:1],6pp4[2:1],
{8},,A2/E2/B2,A6/E7/B6,4xw8[8:1],,,,,
{8}A3/E3/B3/5x-1[8:1],A7/E8/B7,,,
{8}A6/E7/B6/4x-8[8:1],A2/E2/B2,,
{8}5-1[8:1],5,7-3[8:1],7,2>5[8:1],2,1-5[8:1],1,8-4[8:1],8,8,
{16}7,6,5,,1,2,3,,5,4,6,3,7,2,8,1,7,2,
{8}6p3[1:1]b/3,,,,,,,8,8qq5[1:1]b,,,,,,2,1,8pp3[1:1]b,,,,,,,4,4<7[4:1]b,,,,,
{8}8,1,2,3q6[1:1],,,8h,,,,,8qq5[1:1],,,1h,,,2,3,4bpp2[1:1],,,,,,8,7,6bqq1[4:3],,,,
{8}2,2,3,3,4h[4:1],
{16}8,7,6h[8:1],,2,3,4h[8:1],,6,7,8h[8:1],,1,,3,4,3,4,3,,8/1,,6/5,,7/2,,4/3,,7/2,,
{16}5/6,,2,3,4h[8:1],,8q5[8:1],7,6h[8:1],,,,,,,,
{16}4/3,,7,6,5h[8:1],,1p4[8:1]b,2,3h[8:1],,,,,,
{8}1b>1[1:1]*-3-5[2:1],,,,,,,,,1b<1[4:3]*-7-5[8:3],,,,,,,,
{8},7/4,7/4,3/6,2/5,2/5,3/6,3/6,
{16}3,6,3,6,4,7,4,7,5,6,7,8,
{32}5x,6x,7x,8x,1x,2x,3x,4x,
{8}5x/6b,5x/6b,,3x/4b,3x/4b,,4x/6b,4x/6b,,3x/5b,3x/5b,,7bw3[8:1],,,,
{8}5x/6b,5x/7b,,3x/4b,2x/4b,,6x/5b,8x/5b,,4x/3b,4x/1b,,6bw2[8:1],,,,
{8}8x/7b,4x/5b,,2x/1b,5x/4b,,1x/7b,3x/5b,,2x/8b,4x/6b,,
{16}5h[4:1],,,,3,,3,,
{24}5h[8:1]/E1,E2,E3,
{4},
{24}6h[8:1]/B1,B2,B3,
{4},
{24}7h[8:1]/E2,E3,E4,
{4},
{24}8h[8:1]/B2,B3,B4,
{4},
{16}4,3,2,1,
{32}4x,3x,2x,1x,8x,7x,6x,5x,
{8}4x`3b,4x`3b,,6x`5b,6x`5b,,5x`3b,5x`3b,,6x`4b,6x`4b,,2bw6[8:1],,2,,
{8}4x`3b,4x`2b,,6x`5b,7x`5b,,3x`4b,1x`4b,,5x`6b,5x`8b,,3bw7[8:1],,3,,
{4}2/5<8qq5[2:3],4,3,2,1,2,3,4,
{1}4>1pp4[2:3]/8<5pp8[2:3],,
{2}7-2<8[4:3]/3-6>4[4:3],,
{32},,,,,,,,3b<8[4:1]/7bh[4:3],,,,,,,,,,,,,,,,,,,,1,2,3,4,
{1}5h[4:7],4h[4:3],
{8}7b-3[8:1],,,,
{32}2/6b,3,4,5,6,7,8,1,2b,Cf,,,,,,,
{16}7b<4[10:1],,4,3,2/7b>2[10:1],,2,3,4/7b-5-3[10:1],,4,3,2,,2,,
{16}2b>5[10:1],,5,6,7/2b<7[10:1],,7,6,5/2b-4-6[10:1],,5,6,7,,7,,
{8}7h[1:1],,5,5,
{32}5-1[8:1],4,3,2,1,8,,6,
{8}5b,,
{8}3h[4:3],,1,1,
{32}1-5[8:1],8,7,6,5,4,,2,
{8}1b,,
{16}4,3,2,1,8/7,,5,6,7,8,1/2,,5/4,3,2,1,8,7,8,7,1,6,1,6,
{32}1bx,2,3,4,1bx,2,3,4,1bx,8,7,6,1bx,8,7,6,
{16}4/5,,3,4,5,,6,5,7,4,8,3,1/2,,1/2,,
{16}5/4,,6,5,4,,3,4,2,5,1,6,8,7,8,7,
{16}1/6b>3[10:1],,3,2,1/6b<1[10:1],,1,2,3/6b-4>3[10:1],,3,2,1,8,7h[8:1],,,,
{16}6,8,5,1,4,2,7,1,6,2,5,3,
{8}4h[4:1],,
{32}5x,6,7,8,5x,6,7,8,5x,6,7,8,5x,4,3,2,5x,4,3,2,5x,4,3,2,
{8}5bh[4:1],,
{32}4x,3,2,1,4x,3,2,1,4x,3,2,1,4x,5,6,7,4x,5,6,7,8,1,2,3,4/5,6,7,8,
{8}1bh[4:1],,
{16}2,8,3,7,4,6,1v4[8:1],7,2,6,1b,,,,8,8,2,2,4,4,6bh[4:1],,,,
{32}5b,4x,3,2x,1,8x,7,6x,
{16}5b/1,,,,
{16}2,7,2,5,2,8,2,4,2,1,
{8}2v5[8:1],,8,7qq5<1[3:1],1,7,
{16},,1,2,3,4,5b/Ch[4:1]f,,,,,,,,
{8}1/2,5/6b,7/8,3h/4b,Cf,
{16}7,8,6,1,5,2,1,2,8,3,7,4,6,,
{16}6h[4:1]/5,4,3,2,1,,8h[4:1]/1,2,3,4,
{8}5,Cf,
{8}7h[1:1],,8,6,1,5,2,
{32}4,5,6,,8,1,2,3,
{8}4bpp8[4:1]*qq8b[4:1],,,,,
{16}2-4-8[8:1]/6-4-8[8:1],3/5,4b,,,,,,
{16}1/7,2/6,3b/5b,,,,
{32}5,6,7,8,1,2,3,4,
{8}Cf,,
{16}1,2,3,4,5/6,,8,7,6,5,4/3,,8/1,2,3,4,5/6,,8/1,7,6,5,4/3,,
{16}2,5,2,5,1,6,1,6,
{16}8,1,2,3,4/5,,1,8,7,6,5/4,,7/8,1,2,3,4/5,,2/1,8,7,6,5/4,,
{8}3b-8[8:1]/4b-7[8:1],,3/4,,
{16}6,5,6,5,7b,,3,4,3,4,2b,,6,5,7,5,8b,,3,4,2,4,1b,,
{16}2,3,4,5,2/6,7,8,1,
{16}2,1,2,1,3b,,7,8,7,8,6b,,2,1,3,1,4b,,7,8,6,8,5b,,
{16}1,2,3,4,5/1,8,7,6,
{16}5,3,5,3,6b,,2,4,2,4,1b,,5,3,6,3,7b,,2,4,1,4,8b,,
{16}1,2,3,4,1/5,6,7,8,
{16}1,2,3/5,6,7b,,1,2,3/5,6,7b,,2,3,4/6,7,8b,
{16}8b,8b,8b,8b,8b,8b,8b,
{32}1bx,2,3,4,1bx,2,3,4,1bx,8,7,6,1bx/5,8/4,7/3,6/2,
{4}1bx-4[8:1]`5bx-8b[8:1],
{32}1bq3q5q7<3[2:7]`5bq7q1q3>7b[2:7],Cf,,,
E
