&title=リコリス・リコイルのテーマ
&artist=睦月周平
&first=0
&des=五楽沢レオ
&lv_5=11+
&inote_5=(144.00)
{8},,,,,,,,
{8}2,7,3,5,4/6h[8:3],,,3,
{8}2-4[8:1],1,,7,6-8[8:1],5,,2,
{8}7,1,6,4,5/3h[8:3],,,6,
{8}7-5[8:1],8,,2,3-1[8:1],4,,7,
{8}2/4,3,5/7,6,1/5h[8:3],,,2,
{8}3-7[8:1],4,,6,5v8[8:1],4v1[8:1],,,
{8}6,5,4,3,6h[8:3],5,4,3,
{8}6h[8:3],5,4,3,6h[8:3],5,4,3,
{8}5h[8:3],4,3,2,4h[8:3],3,2,1b,
{8},,,,,,,,
{8}2>6[8:2],5,6,7,8-5[8:1],,,4,
{8}7,3,6,4,5-2[8:1]*-8[8:1],,5b,,
{8}1/7h[8:6],2,3-1[8:1],4,3-5[8:1],,3,,
{8}4/8,3/7,2q7[8:2]/6q3[8:2],1/5,,,,,
{8}7<3[8:2],4,3,2,1-4[8:1]*-6[8:1],,1b,,
{8}3h[8:1],5h[8:1],4h[8:1],6,5/6,4/5,3/4,2/3,
{16}1h[8:6]/2h[8:2],,,,,,3,4,5h[8:4],,,,,,2,,
{16}3qq2[8:3]*pp4[8:3],,,,,,,,,,,,,,3/7,2/6,
{16}1h[8:2]/5h[8:6],,,,,,4,,2h[8:4],,,,,,6,,
{8}7qq6[8:3]*pp8[8:3],,,,,,,,
{16}2h[16:3],,,4,4h[16:3],,,5,5h[16:3],,,7,7h[16:3],,,1,
{16}1h[16:3],,,3,3>5[8:3],,,,4b,,,,,,,,
{8}6<2[8:2],1,2,3,4-1[8:1],,4,8,
{8}3,7,2,8,1-6[8:1]*-4[8:1],3/7,1b,,
{8}5/3h[8:6],6,7-5[8:1],8,7-1[8:1],,7,,
{8}8/4,7/3,6q3[8:2]/2q7[8:2],5/1,,,,,
{8}3>7[8:2],8,7,6,5-8[8:1]*-2[8:1],,5b,,
{8}7h[8:1],1h[8:1],8h[8:1],2,1/2,8/1,7/8,6/7,
{16}5h[8:6]/6h[8:2],,,,,,7,8,1-6[8:1],,,,1,,4,,
{8}3-7[8:1],,5p1[8:2]*q1[8:2],,,,,{16}7/3,6/2,
{8}1-4[8:1]/5,,6,7,8V64[8:2],,3,2,
{8}1-6[8:1],,5p4[8:3],,,,,,
{16}3h[16:3],,,5,2h[16:3]/5,,,6,1h[16:3]/6,,,5,8h[16:3]/5,,,6,
{16}1h[16:3]/6,,,7,2h[16:4]/7<8[8:3],,,,,,,,,,,,
{8}1b/7b,,,3,3/4,3h[8:2]/4h[8:1],,4,
{8}3/4,3h[8:1]/4h[8:2],,3,3-5[8:1]/4,,,,
{8}6h[8:2],,,6,6/5,6h[8:2]/5h[8:1],,5,
{8}6/5,6h[8:1]/5h[8:2],,6,6-4[8:1]/5,,,,
{8}1h[8:2]/5h[8:2],,,1,1/5,1h[8:2]/5h[8:1],,5,
{8}1/5,1h[8:1]/5h[8:2],,1,1-5[8:1]/5,,,,
{8}7h[8:2]/3h[8:2],,,7,7/3,7h[8:2]/3h[8:1],,3,
{8}7/3,7h[8:1]/3h[8:2],,7,7-3[8:1]/3,,,,
{8}1>4[8:2],,,,8q5[8:2],,,,
{8}3q6[8:4],,,,6,,7,,
{8}8<5[8:2],,,,1p4[8:2],,,,
{8}6qq3[8:4],,,,2b,,1b,,
{8}5h[8:1]/1h[8:1],,1/5,2/6,3h[8:1]/7h[8:1],,2/6,3/7,
{8}4h[8:1]/8h[8:1],,3/7,2/6,1w5[8:1]/5,,,,
{8}7-1[8:1],,6,,5-7[8:1],,4,,
{8}3-5[8:1],,2,,1-3[8:1],,8V61[8:2],,
{16}4/8,,,,,,3,4,5h[8:2],,,,7,,8,7,
{16}6h[8:2],,,,2,,1,2,3,,4/7,,3/6,,2/5,,
{8}1bpp4[8:18]*qq6[8:18]/4,,,,,,,,
{8},,,,,,,,
{8},,,,,,,,
{8},,,,
{16}3,4,3,5,3,,,,6,5,6,4,6,,,,
{16}2,3,2,4,2,,,,7,6,7,5,7p5[8:6],,,,
{8}5,5,4,4,3,3,2,2,
{8}1/5,1/5,2/6,3/7,4/8w4[8:1],,8b,,
{8}2/5,3,4>7[8:2]/7,6,4/5h[8:2],,,8,
{8}3/6,4,5/7-3[8:1],6,1-4[8:1]*-6[8:1]/7,,1b,,
{8}3/5,4,5/6,7,8v5[8:1]/4v1[8:1],,4/8,,
{8}2/6h[8:1],3,4/7h[8:1],5>2[8:1],5-1[8:1]/8,,,,
{8}7/3,6,5<2[8:2]/2,3,5/4h[8:2],,,1,
{8}6/3,5,4/2-6[8:1],3,8w4[8:1]/2,,8b,,
{8}3-1[8:1]/7-5[8:1],,3/7,,1-4[8:1]/5-8[8:1],,1/5,,
{8}4-2[8:1]/8-6[8:1],,4/8,,2-7[8:1]/6-3[8:1],,2/6>7[8:7],,
{8}8h[8:1],,2h[8:1],,4h[8:1],,6h[8:1],,
{8}5,4/5,3/5,2/5,1/5,1/8,1/7,1/6,
{8}1v6[8:1]/5h[8:14],,,,7v4[8:1],,,,
{8}3-6[8:1],,3-8[8:1],,3-7[8:1],,3,,
{8}1/6-4[8:1],,2-4[8:1],,6-8[8:1],,2-8[8:1],,
{8}7-5[8:1],,3V17[8:3],,4b,4b,5b,5b,
{8},,,,,,,,
E
