&title=Safe and Sound
&artist=Roselia
&first=0
&des=Gelbe Rosen
&lv_5=13+
&inote_5=(91)
{1},
{32}3x,,4,,5,,E7,,,,,,3x,,4,,
{32}5,,E3,,,,,,3x,,4,,5,,6,,
{32}3xh[16:3],,4,,5,,6xh[16:3],,5,,4,,3,,4x/5x,,
{32},,E6,,E5,,E4,,,,8,,8,,,,
{32}6x,,5,,4,,E3,,,,,,6x,,5,,
{32}4,,E7,,,,,,6x,,5,,4,,3,,
{32}6xh[16:3],,5,,4,,3xh[16:3],,4,,5,,6,,,,
{32}E3,,E4,,E6,,E7,,,,1,,1,,,,
{32}3xh[16:3],,4,,5,,B6,,,,,,6xh[16:3],,5,,
{32}4,,B3,,,,,,4x,,5,,4xh[8:1],,,,
{32}6xh[16:3],,4,,5,,3xh[16:3],,5,,4,,6x,,,,
{32},,E5,,,,B7,C,B3/1xh[4:1],,,,,,,,
{32}4pp8[4:1],,,,1,,,,1,,,,1,,,,
{32}1pp4[4:1],,,,6,,,,6,,,,6,,,,
{32}6pp3[4:1],,,,2,,,,2,,,,2,,,,
{32}2h[8:1],,,,4h[8:1],,,,5h[8:1],,,,7h[8:1],,,,
{32}5qq1[4:1],,,,8,,,,8,,,,8,,,,
{32}8qq5[4:1],,,,3,,,,3,,,,3,,,,
{32}3qq6[4:1],,,,7,,,,7,,,,7,,,,
{32}7>3[8:1],,,,46,,,,5x,,,,,,,,
{32}4-1[16:1],,,,3,,,,6,,,,5-7[16:1],,,,
{32}1-4[16:1],,,,2,,,,8,,,,7,,,,
{32}4-1[16:1]/6,,,,3,,,,6,,,,5-7[16:1],,,,
{32}1-4[16:1],,,,2,,,,8,,8,,3x/7x,,,,
{32}5-8[16:1],,,,6,,,,3,,,,4-2[16:1],,,,
{32}8-5[16:1],,,,7,,,,1,,,,2,,,,
{32}3<7[8:1],,,,7>3[8:1],,,,3qq7[4:1],,,,,,,,
{32}7,,,,6,,,,5,,5,,4,,4,,
{32}6x,,6,,6h[32:8],,{128}2b,E3,B3,B4,{32}E5,,,,,3x,,3,,
{32}3h[32:6],,{128}7b,E7,B6,B5,{32}E5,,,5x,4x,5x,,3b/6b,,,,,,
{32}7x,,7,,7h[32:8],,{96}8b,B8,C,{32}B4,,,,,2x,,2,,
{32}2h[32:8],,{96}1b,B1,C,{32}B5,,,,,4,,2,,83,,,,
{32}6x,,6,,6h[32:8],,{128}8b,E1,B1,B2,{32}E3,,,,,3x,,3,,
{32}3h[32:6],,{128}1b,E1,B8,B7,{32}E7,,,5x,4x,5x,,3b/6b,,,,,,
{32}2b-6[16:1]/4x,,,,1b-5[16:1]/3x,,,,8b-4[16:1]/2x,,,,7b-3[16:1]/1x,,,,
{32}6b/8x,,,,5b/7x,,5x,,5x,,5x,,4x/6x,,6x/4x,3x/7x,
{32}2x/8x-5[8:1]*z4[8:1],,,,,,,,,,,,,,,,
{32}34,,,,8-4[16:1]/2,,2,,,,3,,3xqq5[4:1],,,,
{32},,,,5,,,,6,,,,7,,,,
{32}5^2[16:1]/8,,8,,,,6,,6xqq7[4:1],,,,7,,,,
{32}1,,,,2,,,,3-8[16:1],,,,4,,,,
{32}7,,,,6-2[16:1]/1,,1,,,,3,,3xpp8[4:1],,,,
{32},,,,1,,,,8,,,,7,,,,
{32}1^4[16:1]/6^1[16:1],,,,5,,5,,1s5[8:1],,,,3x,,3xh[32:6],,
{32},,,,,,,,2b/4b,,,,1,,1,,
{32}7-5[16:1],,8,,6,,1,,7,,,,2-4[16:1],,1,,
{32}3,,8,,2,,,,5,,5,,46,,,,
{32}3-6[16:1]/7,,7,,,,8,,8xqq4[4:1],,,,7,,,,
{32}4,,,,3,,,,2,,,,13,,,,
{32}4/8-5[16:1],,,,2V41[8:1]/6,,,,1x,,,,,,,,
{32}6p4[16:3]*p5[16:3],,,,78,,,,6,,,,,,,,
{32}3xh[8:1],,,,2,,4,,6xh[8:1],,,,5,,7,,
{32}1xh[8:1],,,,8,,2,,4b,,5,,3,,4,,
{32}65,,,,1-5[16:1]/7,,7,,,,6,,6xpp4[4:1],,,,
{32},,,,4,,,,3,,,,2,,,,
{32}4^7[16:1]/1,,1,,,,3,,3xpp2[4:1],,,,2,,,,
{32}8,,,,7,,,,6-1[16:1],,,,5,,,,
{32}2,,,,3-7[16:1]/8x,,8,,,,6,,6xqq1[4:1],,,,
{32},,,,8,,,,1,,,,2,,,,
{32}3<1[16:3]/8,,,,1,,1V37[8:1],,3,,,,,,,,
{32}5x,,5xh[8:1],,,,8,,8,,17,,26,,35,,
{32}3b/5b,,,,2x^7[16:1],,3x/4x,,,,6x/5x,,7x,,,,
{32}5,,5,,4,,,,1,,3,,6,,8,,
{32}2b-4[16:1],,,,1b-5[16:1],,,,8b-6[16:1],,,,7b,,,,
{32}4x,,4x,,4x,,4x,,3h[4:1]/5,,,,7h[8:1],,,,
{32},,,,3h[16:1]/7h[16:1],,,,,,3h[16:1]/7h[16:1],,,,,,
{32}3h[16:1]/7h[16:1],,,,3x/7x,,2,1,2x,,8x,,6x,,4x,,
{32}2xh[16:1],,1h[16:1],,3,,7xh[16:1],,8h[16:1],,6,,2xh[16:1],,1h[16:1],,
{32}4,,7xh[16:1],,8h[16:1],,5,,3x,,3,,6x,,6,,
{32}2xh[16:1],,4h[16:1],,3,,7xh[16:1],,5h[16:1],,6,,1xh[16:1],,4h[16:1],,
{32}3,,8xh[16:1],,5h[16:1],,6,,2x,,2,,7x,,2,,
{32}8xh[16:1],,4h[16:1],,1xh[16:1],,5h[16:1],,8xh[16:1],,4h[16:1],,1xh[16:1],,5h[16:1],,
{32}7xh[16:1],,3h[16:1],,5,,2xh[16:1],,6h[16:1],,4,,5x,,5,,
{32}1xh[16:1],,7h[16:1],,4,,8xh[16:1],,2h[16:1],,5,,4x,,4,,
{32}6xh[16:1],,2h[16:1],,5xh[16:1],,3h[16:1],,7xh[16:1],,1h[16:1],,6xh[16:1],,2h[16:1],,
{32}7xh[16:1],,1h[16:1],,5,,2xh[16:1],,8h[16:1],,4,,7xh[16:1],,1h[16:1],,
{32}4,,2xh[16:1],,8h[16:1],,5,,6x,,6,,3x,,3,,
{32}7xh[16:1],,4h[16:1],,6,,2xh[16:1],,5h[16:1],,3,,8xh[16:1],,5h[16:1],,
{32}6,,1xh[16:1],,4h[16:1],,3,,7x,,7,,3x,,1,,
{32}2x/8x,,28,,28,,{128}2xh[32:4]/1b,E1,B8,B7,{32}E7,,,,,7x/1x,,71,,
{32}71,,{128}7xh[32:4]/8b,E1,B1,B2,{32}E3,,,,,7x,,5,,6b/3b,,,,
{32}3x/8x,,38,,38,,{96}3xh[32:4]/1b,B1,C,{32}B5,,,,,1x/6x,,16,,
{32}16,,{96}6xh[32:4]/8b,B8,C,{32}B4,,,,,6xpp3[8:3],,5,,3,,2,,
{32}1xh[2:1],,,,,,,,,,,,,,,,
{32}4>6[4:1],,,,3,,,,6pp3[8:3],,,,,,5x,,
{32}5xh[2:1],,,,,,,,,,,,,,,,
{32}4,,,,45,,,,3,,5,,4,,6,,
{32}2^4[16:1],,,,8,,8h[32:6],,,,,,5xh[8:1],,,,
{32}7^5[16:1],,,,1,,1h[32:6],,,,,,4xh[8:1],,,,
{32}2h[16:3],,,,6,,6h[8:1],,,,4h[8:1],,,,Cf,,
{32},,,,,,,,3xqq6[8:3],,4,,6,,7,,
{32}8xh[2:1],,,,,,,,,,,,,,,,
{32}5<3[4:1],,,,6,,,,3qq6[8:3],,,,,,4x,,
{32}4xh[2:1],,,,,,,,,,,,,,,,
{32}5,,,,45,,,,6,,3,,7h[16:3],,2h[8:1],,
{32},,,,18,,,,7-3[16:1],,,,3,,3,,
{32},,1,,1,,,,2-6[16:1],,,,6,,6,,
{32},,8,,8,,,,5x/7x,,5x/7x,,6,,6,,
{32}2x/5x,,3,4,3,,3,,1x/2x,,1x/2x,,8,,7,,
{32}6bpp4[8:5]/4b>5[8:5],,,,,,,,,,,,,,,,
{32},,,,,,,,,,,,,,,,
{32}E4,,E3,,E2,,E1,,E8,,E7,,E6/Ch[8:5],,,,
{32},,,,,,,,,,,,,,,,
{32}5xqq4[4:1]*pp6[4:1],,,,,,,,,,,,,,,,
{32},,,,,,3b,3x,4xh[16:3],,2h[8:1],,,,,,
{32}1h[16:3]/6-3[16:1],,7h[8:1],,,,,,2qq7[4:1]/6,,,,5,,5,,
{32}4,,,,6,,,,5p1[16:1],,,,4,,7,,
{32}65,,,,2/8^5[16:1],,7h[8:1],,,,3,,4pp2[4:1]/8,,,,
{32},,,,8,,8,,1,,,,7,,,,
{32}2-7[16:1]/6-1[16:1],,,,35,,35,,2V46[8:1]/6,,,,8x,,8xh[16:3],,
{32},,,,{48}E7,E8,E1,E2,E3,E4,{32}5b,,,,46,,46,,
{32}3-7[16:1],,8,,2,,5,,34,,,,6-2[16:1],,1,,
{32}7,,4,,56,,,,4,,4,,35,,,,
{32}2h[16:3]/7^4[16:1],,8h[8:1],,,,,,3pp2[4:1]/7,,,,7,,7,,
{32}8,,,,1,,,,7,,,,26,,26,,
{32}1/7-1[16:1],,,,3-5[16:1]/5,,,,2,,,,8w4[16:1],,8,,
{32}2,,6,,8,,,,6,,8,,1,,3,,
{32}2-7[16:1]/6-3[16:1],,,,35,,,,26,,,,51,,5h[8:1]/1,,
{32},,{48}E7,C,E3,{32}8,,8,,4,,4,,6,,6,,
{32}65,,,,7/1-4[16:1],,2h[8:1],,,,4,,5pp1[4:1]/1,,,,
{32},,,,3,,3,,4,,,,2,,,,
{32}8h[16:3]/3-6[16:1],,2h[8:1],,,,,,7pp2[4:1]/3,,,,4,,4,,
{32}5,,,,3,,,,4q8[16:1],,,,5,,2,,
{32}34,,,,7/1^4[16:1],,2h[8:1],,,,6,,5qq7[4:1]/1,,,,
{32},,,,1,,1,,8,,,,2,,,,
{32}7v1[16:1]/3v1[16:1],,64,,,,28,,73,,,,3b/7b,,,,
{32}2,8,2,8,3,7,3,7,4,6,4,6,5,5,5,5,
{32}5b,,,,1x/8x-4[16:1],,6x/5x,,,,2x/3x,,7xh[4:1]/8b,,,,
{32},,,,{48}5x,6x,7x,8x,1x,2x,{32}3b/5x-7[16:1],,,,1x-3[16:1]/7x,,,,
{32}4xw8[16:1]*-8[16:1]/5b,,,,1b/8x,,,,4b,,,,2b/6b,,3,4,
{32}3,,24,,35,,46,,{96}5b<4[4:7]/7b,B5,Cf,{32}B1,,,,,,,
{1}6h[4:7],,,
E
