&title=Witchcraft
&artist=葉月ゆら
&first=0
&des=おにねこ
&wholebpm=135
&lv_5=14
&inote_5=(135)
{1},
{8}1b/8b,2,6,3,5-1[8:2],,,4,
{16},3,,,7,,2,,8/1-5[8:1],,,,,,,,
{24}8,7,6,5,4,3,7,6,5,4,3,2,8,7,6,5,4,3,
{16}2b/8b,,,,
6-2[8:1]/4h[8:2],,,,6<1[8:1],,,5,,,4,,38,,4,,
7-3[8:1]/5h[4:1],,,,7<4[8:1],,,8,,,1,,25,,1,,
6-2[8:1]/8h[4:1],,,,6<1[8:1],,,5,,,4,,38,,4,,
7h[16:3]/5,,,1,7,,25,,3/4-8[8:1],,,,4b/7b,,,,
2-6[8:1]/6h[4:1],,,,2>5[8:1],,,7,2,,8,,13,,8,,
3-7[8:1]/7h[4:1],,,,3>8[8:1],,,6,3,,5,,42,,5,,
2-6[8:1]/6h[4:1],,,,2,,,7,5h[8:1],,8,8,2,2,4,3,
{24}6,5,6,{16}5,7,3,4,1,6,3-7[8:1],,,,2b/3b,,,,
{16}
6h[8:1]/5,,3,,6h[8:1],,8,,6h[8:1],,3,3,6h[8:1],,5,,
6h[16:2]/5,,3,3,6h[8:1],,8,,6h[8:1],,2,,6pp5[8:2],,5,,
4,,3,,2pp1[8:2],,1,,8,,7,7h[16:3],,,5,,
65,,2,2h[16:3],,,4,,4/3-8[8:1],,5,,6,6,,,
3h[8:1]/4,,5,,3h[8:1],,8,,3h[8:1],,6,6,3h[8:1],,4,,
3h[16:2]/4,,6,6,3h[8:1],,8,,3h[8:1],,5,,3qq3[8:2],,4,,
5,,6,,7qq7[8:2],,8,,1,,2,2h[16:3],,,4,,
34,,6,5h[16:3],,,8,8,5,6,3,3,4,2,6,4,
8b,,3,4,2,,34,,6-1[8:1],5,,5,6,,2,,
65,,3h[16:3],5,,7h[16:3],5,,3,5,3,7,5h[8:1],,8,,
7/1,,6,5h[8:1],,8,5h[8:1],,2,5h[8:1],,7,5,,56,,
82,,3,4h[8:1],,7,4h[8:1],,1,1,8,4,5,,45,,
17,,6,5,7,,35,,2-5[8:1],4,,4,2,,7,,
78,,2h[16:3],8,,6h[16:3],8,,2,8,2,6,8h[8:1],,4,,
6h[16:2]/2,,4,6h[8:1],,1,6h[8:1],,3,6h[8:1],,8,6h[8:1],,{24}3,4,3,
{16}
5,4,7,1,6,3,8,2,5-1[8:1],3,7,1,5bqq2[8:7],,,,
6,,,,,,,,8,,,8,,,8,,
3/8qq3[8:5],,,,,,,,2h[8:4],,,,,,,,
4pp7[8:5],,,,,,,,1,,,1,,,1,,
5/1s5[8:3],,,,,,7,,7h[8:3],,,,,,1,,
{8}
42,3,45,6,57,6,45,3,
12,3,45,6,78,6,45,36,
{16}
2,1,3,8,4,7,5,6,
{24}
8,7,8,7,8,7,
1,6,1,6,1,6,
{16}
2b/5b,,4b/7b,,,2b/5b,,,1b-5[8:1]/8b-4[8:1],,,,1b/8b,,,,
3-7[8:1],,42,,53,,6,6,
5-1[8:1],,74,,53,,2,2,
4,,3/5-2[8:1],,2-6[8:1]/6,,7,7h[16:5],
,,,,8,,16,,
5/2>5[8:1],,7,7,,8,8,,1<6[8:1]/4,,2,2,,3,3,,
5h[16:1],3,7,5,1h[16:1],3,7,1,
5-2[8:1]*-8[8:1],,7,,5b,,,,
6-2[8:1],,75,,64,,3,3,
4-8[8:1],,25,,46,,7,7,
5,,6/4-7[8:1],,7-3[8:1]/3,,2,2h[16:5],
,,,,8h[8:1],,
5,5,6h[8:1],,4,,25,,
{24}3,4,3,
{16}5,2,4,3,8,2,6,4,7h[16:8],,5b,,,2b,,,
{24}5b,6,5,
{16}6,2,4,3,6,5,
8-4[8:1],,,3,8-6[32:3],,1,,8-3[8:1],4,,2,2/8-6[32:3],,5,,
8-4[16:2],,4,,38,,2,,1>8[16:4],2,3,4,5,,,,
2h[16:4],,,6,6h[16:4],,8,,2-4[32:3],,8,8,2-8[32:3],,6,,
24,,,6,5,,3,4,5-8[8:1]/2-5[8:1],,1,,52,,,,
6/1-5[8:1],,,7,1-3[32:3],,8,,1-6[8:1],5,,7,7/1-3[32:3],,4,,
1pp4[16:5],,8,,7,,6,,5,6,7,8,1/5-1[8:1],,,,
56,,,7,7h[8:1],,{24}5,6,5,
{16}7,4,6,2,4,3,5,1,
28,,5b/7b,,,2b/4b,,,1b-5[8:1]/8b-4[8:1],,,,1b/8b,,,,
6/3,,4,,46,,4,,56,,,5,6,,5,,
6,5,,,46,,3,,2-6[8:1]/6,,,,2/6,,8b,,
3b/7b,,5,,35,,5,,43,,,4,3,,4,,
3,4,,,53,,6,,7-3[8:1]/3,,,,7/3,,1b,,
6b-4[32:3]/2b,,3,,6/3,,2,,1/6-4[32:3],,8,8,6,,1h[8:1],,
6-4[32:3],1,,,2/6-2[32:4],,3,,6pp5[32:8]/4,,,,61,,,,
2-4[32:3],,5,,62,,6,,7/2-4[32:3],,8,8,2,,{24}1,8,7,
{16}
6,2b,4,8,6b,3,1b,5,7b,1,5,3,{32}8b-4[8:5],7,6,5,4,3,2,1,
{4}8h[8:8],,,,
{16}
1h[16:14],,,,,,,,2,,,4,,,6,,
7V53[8:4]/1,,,,,,,,2h[16:6],,,,,,,,
2/8h[16:14],,,,,,,,7,,,5,,,3,,
2V46[8:4]/8,,,,,,,,7h[16:6],,,,,,,,
{4}
7/5h[4:1],4h[4:1],2h[4:1],1h[8:1],1/3h[4:1],5h[4:1],7h[4:1],1h[8:1],
1h[8:7]/2,3,4,5h[8:1],
{12}
15,48,37,26,37,48,
{16}1-6[8:1]/5-2[8:1],,,,1b/5b,,,,
7h[16:2]/8h[16:2],,,,2b/5b,,,,1h[16:2]/2h[16:2],,,,
7b/4b,,,,,,1b/2b,,,6b/8b,,,5b-1[8:1]/4b-8[8:1],,,,
4b/5b,,,,
2/6-2[8:1],,1,1,,3,3,,4-8[8:1]/8,,7,7,,5,5,,
1h[16:1],7,3,1,5h[16:1],7,3,5,
1>4[8:1]*<6[8:1],,73,,1b,,,,
2-5[8:1],,18,,2,,6,7,
8-5[8:1],,21,,8,,4,3,
62,,8/7V16[8:1],,1/6-2[8:1],,3,3h[16:5],
,,,,4,,
3,4,25,,6,5,74,,
{24}7,8,7,
{16}1,6,5,7,4,5,3,4,2h[16:8],,1b,,,6b,,,
{24}1b,2,1,
{16}3,8,1,6,5,7,
4-8[8:1],,,7,4-2[32:3],,1,,4-6[32:3],7,,7,4-2[32:3],,1,,
4-8[8:1],,8,,74,,6,,5<4[16:4]/1,62,73,84,15,,,,
7h[16:3],,,4,7/4,,12,,4/7<4[32:4],,3,3,7-3[8:1],,1,,
7/3,,,2,1,,7,8,1>4[8:1]/6<1[8:1],,5,,1/6,,,,
5-1[8:1]/3,,,2,5-7[32:3],,8,,5-3[32:3],2,,2,5-7[32:3],,8,,
5-1[16:2],,1,,25,,3,,4pp8[16:5]/8,37,26,15,4/8,,,,
3h[16:4],,,7,7h[8:1],,{24}8,7,1,
{16}8,3,1,5,7,1,6,3,
45,,1b/3b,,,6b/8b,,,5b-1[8:1]/4b-8[8:1],,,,5b/4b,,,,
{8}27,8,3,6,1-5[8:2]/5,,,8,
{16},7,,,3,,6,,1/5w1[8:1],,,,,,,,
{24}4b,7,2,5,3,6,{4}1b,,,,,,,,,,,
