&title=Memento Mori
&artist= Massive New Krew
&first=0.09
&des_1=CiF
&des_2=CiF
&des_3=CiF
&des_4=CiF
&des_5=CiF
&lv_5=14
&des_6=CiF
&des_7=CiF
&des=CiF
&inote_4=(220)
{8},,,,,,,
{32},E8/E2,E7/E3,E6/E4,E5,,,,,,,,,,,,,,,,
{12}E6,,E5,,E4,,{16}B7/E8,,,,,,E4/B4,,,,,,,,,,B6/E6,,,,,,E3,,,,,,C,,,,E7/E6,,,,,,E3/E4,,,,,,,,,,
36,,,,5,,,,{12}4h[6:1],,6h[6:1],,2h[6:1],,{16}8h[1:1],,,,,,1,,,,,,,,,,
2>5[4:1],,,,7,,,,8<5[4:1],,,,2,,,,1w5[2:1],,,,,,,,,,,,,,,,
3h[4:7]/7h[4:7],,,,,,,,,,,,,,,,,,,,,,,,,,,,,,,,
4h[4:1]/6h[4:1],,,,,,4h[4:1]/2h[4:1],,,,,,1,2,3,4,8,7,6,5,2,3,4,5,1v3-5[4:1],8,7,6,5,,,,
{16}8h[4:1],,,,,,1h[4:1]/7h[4:1],,,,,,2h[4:1]/1h[4:1],,,,,,3h[4:1]/8h[4:1],,,,,,72,,,,16,,,,7h[4:1]/5h[4:1],,,,,,3h[4:1]/5h[4:1],,,,,,
4,5,4,5,{16}4,,6,5,6,,47,,,,1,,2b/8b,,,,
{16}3h[4:1]/4h[4:1],,,,,,5h[4:1]/2h[4:1],,,,,,6h[4:1]/5h[4:1],,,,,,7h[4:1]/4h[4:1],,,,,,36,,,,52,,,,14,,,,1,,,,15,,,,1,,,,16,,,,1,,,,17,,,,1,,,,83,,,,8,,,,8/2,,8,,1,,1,,7,2,7,2,6,3,6,3,{32}E6,E5,E4,E3,E2,E1,E8,E7,E6,,,,,,,,
{16}34,,3,,45,,5,,24,,2,,46,,6,,4h[16:1]/3h[16:1],,4h[16:1]/2h[16:1],,4h[16:1]/1h[16:1],,4h[16:1]/8h[16:1],,
5,1,6,2,7,3,8,4,C,,,,3,,24,,,,7,,86,,,,1,8,1,8,1,8,1,8,1s5[8:1]*v3[8:1],,,,1b,,,,
7<4[8:1],,,,7,,1-5[8:1],,,,1,,6,,,,4,,6,5,7,,3/8,,,,6h[4:1],,5,4,3,2,1>4[8:1],,8,,1/7-3[8:1],,,,7/2,,1,,,,5h[4:1]/2,,,,1,,28,,37,,46,,8,,17,,26,,
3>8[8:1]/5,,,,3,,5-1[8:1],,,,5,,2,,,,8,,2,1,3,,4>1[8:1]/7,,,,4,,
7,6,5,4,1,8,7,6,5,4,3,2,6,5,4,3,2,1,8,7,6/B4/B3,,,,5x,,3/B5/B6,,,,27,,E3/E7,,,,
5bpp1[2:1]b,,,,,,,,2-4[8:1],,,,2,,,,8-3-7[8:3],,8,,4,,4,,5-1[8:1],,,,5,,,,8qq4[2:1],,,,,,,,3-1[8:1],,,,3,,,,5V36[4:1],,,,2,,2,,1-4-8[4:1],,,,7,,7,,6bpp2[2:1]b,,,,,,,,3-5[8:1],,,,3,,,,1-6-2[8:3],,1,,5,,5,,4-8[8:1],,,,4,,,,7qq3[2:1],,,,,,,,2-8[8:1],,,,2,,,,5-7[8:1],,,,5-3[8:1],,,,5-1[8:1],,,,5,,2x,,
2h[1:1],,,,,,,,{32}B4,E5,{16},,,,,,,5h[1:1],,,,,,,{32}E3,B3,{16},,,,,,,,4h[1:1],,,,,,,,{32}B7,E7,{16},,,,,,,
8b,,,,,,7b/1b,,,,,,6b/2b,,,,
{16}A3,E4,A4,E5,A5,E6,A6,E7,A7,E8,A8,E1,
A1,E2,A2,E3,A3,E4,A4,E5,A5,E6,A6,E7,A7,E8,A8,E1,
A1,E2,A2,E3,
{16}A6,D6,A5,D5,A4,D4,A3,D3,A2,D2,A1,D1,A8,D8,A7,D7,
{16}E4,E5,E6,E7,E8,E1,E2,E3,E4,E5,E6,E7,E8,E1,E2,E3,
{16}5x,,,,6x/4x,,,,5x/2x,,,,7x/4x,,,,{12}5,4,6,3,5,2,6,4,7,3,5,1,
{16}Ch[4:1],,,,,,,,,,,,,,,,Ch[4:1],,,,,,,,,,,,,,,,
1h,,,,,,7h,,,,,,3h,,,,5h,,,,,,4p2[8:24]b*p6[8:17],,,,,,,,,,
,,,,,,,,,,,,,,,,,,,,,,,,,,,,,,,,
8,,,,,,,,7,,,,,,,,6,,,,,,,,5w1[8:1]b,,5,,5b,,,,
7-3[8:1],,,,7/1-5[8:1],,,,1/6-2[8:1],,,,6/4-8[8:1],,,,7<4[8:1]/4,,,,7-1[8:1]/2-5[8:1],,,,2/7,,,,6-4[8:1],,,,2-4[8:1]/6,,,,2-8[8:1]/7-4[8:1],,,,27,,,,3-7[8:1]b,,,,3/5-1[8:1]b,,,,5/2-6[8:1]b,,,,2/8-4[8:1]b,,,,8/3pp6[8:4],,,,
3,,,,7,,,,{12}1h[6:1],,5h[6:1],,7h[6:1],,{16}1,2,3,4,51,6,7,8,1/5,26,37,48,5/1,,,,82,,,,34,,,,46,,,,7/8-4[8:1],,,,8b/3b,,2b-6[8:1],,,,2b/7b,,8bw4[8:1]b,,,,8,,,,
2x/6x,,6x/2x,,2x/6xh[4:1],,,,1,8,7,6,5,4,3,2,7,6,5,4,3,2,1,8,4,5,6,7,8,1,2,3,
8<5[8:1],,,,8>3[8:1],,,,8-4[8:1],,,,8,,,,8/5,,6/1,,7/2,,8-5[8:1]/3-8[8:1],,,,8pp3[8:5]/3,,,,,,7,,,,6,,,,{12}4h[6:1],,2h[6:1],,6h[6:1],,{16}4,3,2,1,84,7,6,5,48,37,26,51,4/8,,,,
1,,1,,3,,3,,5,,5,,7,,7,,1,8,1,8,1,8,1,8z4[16:3],1s5[8:1],,,,E1f,,,,
{1},,,,
{16}A3,E4,E5,A5,A2,B2,C,B6,A1,E1,E8,A7,
A3,E4,E5,A5,A2,B2,B6,A6,A1,E1,E8,A7,
A3,E4,E5,A5,B2,C,B6,A6,
A2,E2,E1,A8,A3,B3,C,B7,A4,E5,E6,A6,
A2,E2,E1,A8,A3,B3,B7,A7,A4,E5,E6,A6,
A2,E2,E1,A8,B3,C,B7,A7,
{24}1x,2x,3x,4x,5x,6x,7x,8x,1x,2x,3x,4x,5x,6x,7x,8x,1x,2x,3x,4x,5x,6x,7x,8x,
1bw5[73.33#24:1],,,,,,,,,,,,,,,,,,,,,,,,
{16}7,8,7,8,6,1,6,1,5,2,5,2,4,3,4,3,
4,2,4,2,5,3,5,3,6,4,6,4,7,5,7,5,
8,4,8,4,7,3,7,3,6,2,6,2,5,1,5,1,
4-8[8:1],,,,42,,1-5[8:1],,,,61,,7h[4:1],,,,
5,4,3,2,8,7,6,5,{12}4hx[12:1]/2hx[12:1],,4hx[12:1]/5hx[12:1],,5hx[12:1]/7hx[12:1],,
{16}8,1,7,2,6,3,5,4,5,4,6,3,7,2,8,1,
7b-3[8:1]b,,,,7b/1b-5[8:1]b,,,,6b-2[8:1]b/1b,,,,6b/4b,,,,D1f/E1,,D3f/E3,,D5f/E5,,D7f/E7,,,,1/5,,3b/7b,,,,
1h[8:3]/8h[8:3],,,,,,,,{12}D7/E7,,D3/E3,,D5/E5,,
{16}2,5,3,4,2,5,1,6,8,7,8,7,8,7,8,7,
1h[8:3],,D7/E7,,,,D6f/E6,,,,4x/3hx[8:3],,,,,,
7h[8:3],,D5/E5,,,,D4f/E4,,,,1x/2hx[8:3],,,,,,
4,5,6,7,1,2,3,4,{12}5hx[12:1]/7hx[12:1],,4hx[12:1]/5hx[12:1],,4hx[12:1]/2hx[12:1],,
{16}1,8,2,7,3,6,4,5,4,5,3,6,2,7,1,8,
2-5[8:1],,2,,2/7-4[8:1],,7,,3-8[8:1]/7,,3,,63,,6,,
7,1,6,1,
{32}
5,7,6,2,3,4,5pp8[2:1]/1pp4[2:1],8,7,6,5,4,3,2,1,,,,,,,,,,,,,,,,,,,,,,,,,,,,,,
{1},
{12}2,4,3,7,5,6,3,4,2,6,5,8,
3,3,1,2,2,8,1,1,7,8,8,6,
{16}C,,,,,,,,,,4-1[8:1]/5-8[8:1],,,,,,,,,3b/6b,
E
&inote_5=(220)
{8},,,,,,,
{24}E8/E2,E7/E3,E6/E4,E5,,,,,,,,,,,,
{12}E6,,E5,,E4,,{16}B7/E8,,,,,,E4/B4,,,,,,,,,,B6/E6,,,,,,E3,,,,,,C,,,,E7/E6,,,,,,E3/E4,,,,,,,,,,
36,,,,5,,,,{12}4h[6:1],,6h[6:1],,2h[6:1],,{16}8h[1:1],,,,,,1,,,,,,,,,,
2>5[4:1],,,,7,,,,8<5[4:1],,,,2,,,,1w5[2:1],,,,,,,,,,,,,,,,
3h[4:7]/7h[4:7],,,,,,,,,,,,,,,,,,,,,,,,,,,,,,,,
4h[4:1]/6h[4:1],,,,,,4h[4:1]/2h[4:1],,,,,,8,7,6,5,1,2,3,4,7,6,5,4,8v6-4[4:1],1,2,3,,,,,
{16}2h[4:1],,,,,,1h[4:1]/3h[4:1],,,,,,7h[4:1]/8h[4:1],,,,,,6h[4:1]/1h[4:1],,,,,,27,,,,83,,,,7h[4:1]/5h[4:1],,,,,,3h[4:1]/5h[4:1],,,,,,
4,5,4,5,{16}4,,6,5,6,,47,,,,1,,2b/8b,,,,
{16}3h[4:1]/4h[4:1],,,,,,5h[4:1]/2h[4:1],,,,,,6h[4:1]/5h[4:1],,,,,,7h[4:1]/4h[4:1],,,,,,36,,,,52,,,,14,,,,1,,,,15,,,,1,,,,16,,,,1,,,,17,,,,1,,,,83,,,,8,,,,8/2,,8,,1,,1,,7,2,7,2,6,3,6,3,{32}E6,E5,E4,E3,E2,E1,E8,E7,E6,,,,,,,,
{16}34,,3,,45,,5,,24,,2,,46,,6,,4h[16:1]/3h[16:1],,4h[16:1]/2h[16:1],,4h[16:1]/1h[16:1],,4h[16:1]/8h[16:1],,
5,1,6,2,7,3,8,4,C,,,,3,,24,,,,7,,86,,,,1,8,1,8,1,8,1,8,1s5[8:1]*v3[8:1],,,,1b,,,,
7<4[8:1],,,,7,,1-5[8:1],,,,1,,6,,,,4,,6,5,7,,3/8,,,,6h[4:1],,5,4,3,2,1>4[8:1],,8,,1/7-3[8:1],,,,7/2,,1,,,,5h[4:1]/2,,,,1,,28,,37,,46,,8,,17,,26,,
3>8[8:1]/5,,,,3,,5-1[8:1],,,,5,,2,,,,8,,2,1,3,,4>1[8:1]/7,,,,4,,
7,6,5,4,1,8,7,6,5,4,3,2,6,5,4,3,2,1,8,7,6/B4/B3,,,,5x,,3/B5/B6,,,,27,,E3/E7,,,,
5bpp1[2:1]b,,,,,,,,2-4[8:1],,,,2,,,,8-3-7[8:3],,8,,4,,4,,5-1[8:1],,,,5,,,,8qq4[2:1],,,,,,,,3-1[8:1],,,,3,,,,5V36[4:1],,,,2,,2,,1-4-8[4:1],,,,7,,7,,6bpp2[2:1]b,,,,,,,,3-5[8:1],,,,3,,,,1-6-2[8:3],,1,,5,,5,,4-8[8:1],,,,4,,,,7qq3[2:1],,,,,,,,2-8[8:1],,,,2,,,,5-7[8:1],,,,5-3[8:1],,,,5-1[8:1],,,,5,,2x,,
2h[1:1],,,,,,,,{32}B4,E5,{16},,,,,,,5h[1:1],,,,,,,{32}E3,B3,{16},,,,,,,,4h[1:1],,,,,,,,{32}B7,E7,{16},,,,,,,
8b,,,,,,7b/1b,,,,,,6b/2b,,,,
{16}A3,E4,A4,E5,A5,E6,A6,E7,A7,E8,A8,E1,
A1,E2,A2,E3,A3,E4,A4,E5,A5,E6,A6,E7,A7,E8,A8,E1,
A1,E2,A2,E3,
{16}A6,D6,A5,D5,A4,D4,A3,D3,A2,D2,A1,D1,A8,D8,A7,D7,
{16}E4,E5,E6,E7,E8,E1,E2,E3,E4,E5,E6,E7,E8,E1,E2,E3,
{16}5x,,,,6x/4x,,,,5x/2x,,,,7x/4x,,,,{12}5,4,6,3,5,2,6,4,7,3,5,1,
{16}Ch[4:1],,,,,,,,,,,,,,,,Ch[4:1],,,,,,,,,,,,,,,,
1h,,,,,,7h,,,,,,3h,,,,5h,,,,,,4p2[8:24]b*p6[8:17],,,,,,,,,,
,,,,,,,,,,,,,,,,,,,,,,,,,,,,,,,,
8,,,,,,,,7,,,,,,,,6,,,,,,,,5w1[8:1]b,,5,,5b,,,,
7-3[8:1],,,,7/1-5[8:1],,,,1/6-2[8:1],,,,6/4-8[8:1],,,,7<4[8:1]/4,,,,7-1[8:1]/2-5[8:1],,,,2/7,,,,6-4[8:1],,,,2-4[8:1]/6,,,,2-8[8:1]/7-4[8:1],,,,27,,,,3-7[8:1]b,,,,3/5-1[8:1]b,,,,5/2-6[8:1]b,,,,2/8-4[8:1]b,,,,8/3pp6[8:4],,,,
3,,,,7,,,,{12}1h[6:1],,5h[6:1],,7h[6:1],,{16}1,2,3,4,51,6,7,8,1/5,26,37,48,5/1,,,,82,,,,34,,,,46,,,,7/8-4[8:1],,,,8b/3b,,2b-6[8:1],,,,2b/7b,,8bw4[8:1]b,,,,8,,,,
2x/6x,,6x/2x,,2x/6xh[4:1],,,,1,8,7,6,5,4,3,2,7,6,5,4,3,2,1,8,4,5,6,7,8,1,2,3,
8<5[8:1],,,,8>3[8:1],,,,8-4[8:1],,,,8,,,,8/5,,6/1,,7/2,,8-5[8:1]/3-8[8:1],,,,8pp3[8:5]/3,,,,,,7,,,,6,,,,{12}4h[6:1],,2h[6:1],,6h[6:1],,{16}4,3,2,1,84,7,6,5,48,37,26,51,4/8,,,,
1,,1,,3,,3,,5,,5,,7,,7,,1,8,1,8,1,8,1,8z4[16:3],1s5[8:1],,,,E1f,,,,
{1},,,,
{16}A3,E4,E5,A5,A2,B2,C,B6,A1,E1,E8,A7,
A3,E4,E5,A5,A2,B2,B6,A6,A1,E1,E8,A7,
A3,E4,E5,A5,B2,C,B6,A6,
A2,E2,E1,A8,A3,B3,C,B7,A4,E5,E6,A6,
A2,E2,E1,A8,A3,B3,B7,A7,A4,E5,E6,A6,
A2,E2,E1,A8,B3,C,B7,A7,
{24}1x,2x,3x,4x,5x,6x,7x,8x,1x,2x,3x,4x,5x,6x,7x,8x,1x,2x,3x,4x,5x,6x,7x,8x,
1bw5[88#15:1],,,,,,,,,,,,,,,,,,,,,,,,
{16}7,8,7,8,6,1,6,1,5,2,5,2,4,3,4,3,
4,2,4,2,5,3,5,3,6,4,6,4,7,5,7,5,
8,4,8,4,7,3,7,3,6,2,6,2,5,1,5,1,
4-8[8:1],,,,42,,1-5[8:1],,,,61,,7h[4:1],,,,
5,4,3,2,8,7,6,5,{12}4hx[12:1]/2hx[12:1],,4hx[12:1]/5hx[12:1],,5hx[12:1]/7hx[12:1],,
{16}8,1,7,2,6,3,5,4,5,4,6,3,7,2,8,1,
7b-3[8:1]b,,,,7b/1b-5[8:1]b,,,,6b-2[8:1]b/1b,,,,6b/4b,,,,D1f/E1,,D3f/E3,,D7f/E7,,D5f/E5,,,,1/5,,3b/7b,,,,
1h[8:3]/8h[8:3],,,,,,,,{12}D7/E7,,D3/E3,,D5/E5,,
{16}2,5,3,4,2,5,3,4,2,5,1,6,8,7,8,7,
1h[8:3],,D7/E7,,,,D6f/E6,,,,4x/3hx[8:3],,,,,,
7h[8:3],,D5/E5,,,,D4f/E4,,,,1x/2hx[8:3],,,,,,
4,5,6,7,1,2,3,4,{12}5hx[12:1]/7hx[12:1],,4hx[12:1]/5hx[12:1],,4hx[12:1]/2hx[12:1],,
{16}1,8,2,7,3,6,4,5,4,5,3,6,2,7,1,8,
2-5[8:1],,2,,2/7-4[8:1],,7,,3-8[8:1]/7,,3,,63,,6,,7bx,1bx,6bx,2bx,
{32}5b,4,3,2,1,8,7,6,5/Cf,,,,,,,,
{16}8,1,2,3,4pp8[4:6]/8pp4[4:6],,,,,,,,,,,,,,,,
{1},
{12}7,5,6,2,4,3,6,5,7,3,4,1,
6,6,8,7,7,1,8,8,2,1,1,3,
{16}C,,,,,,,,,,5-8[8:1]/4-1[8:1],,,,,,,,,6b/3b,
E
