&title=isophote
&artist=パソコン音楽クラブ feat.ぷにぷに電機.
&first=1.55
&des=
&des_5=
&des_6=The_Procyon
&des_7=
&lv_5=1
&lv_6=14
&lv_7=1
&inote_5=
&inote_6=(160){4},,,,5/2pp5[2:1],
{8}1,8,,7,{4}6,
4/7qq4[2:1],{8}8,1,,2,{4}3,
5/4qq1[2:1],{8}8,7,,6,{4}5,
1/7p4[2:1],{8}2,3,,3,{4}1,
4/2qq5[2:1],{8}6,6,,7,{4}8,
5/7pp4[2:1],{8}3,3,,2,{4}1>4[8:1],
{8}1,8,7<4[8:1],1,7,2-6[8:1],1,2,
{4}7-2[8:1]*-4[8:1],7,{8}1/5,{16}6,7,{4}8h[8:1]/4-2[8:1],
7/4-8<5[2:1],{8}1,1h[4:1],,,{4}2-4[8:1],
2<4[2:1],{8}3,3h[4:1],,,{4}1-5[8:1],
1qq5[2:1],{8}2,2h[4:1],,,{4}1>4[8:1]*-7[8:1],
1-5[8:1],{8}1,6h[8:1],8x,{16}1,4,{8}3,1,
{4}2pp7[2:1],{8}1,1,,,{4}8-4[8:1],
8<5-1[2:1],{8}2,2,,,{4}3-5[8:1],
{8}8-4[8:1],,,2-6[8:1],,,{4}5-1[8:1],
{8}8,2h[8:3],{32},,,,,,,,1,8,7,6,5,4,3,2,{4}1-5[8:1],
{8}1,2h[8:1],3h[8:1],4h[8:5],,,,,6h[8:1],
5h[8:1],4h[8:1],3h[8:5],,,,,6h[8:1],
5h[8:1],4h[8:1],3v6[4:1],,,,,7,
{16}6,5,{8}8,1,2/4h[8:1],3,8/5h[8:1],6,
2h[8:1],3h[8:1],4h[8:1],5h[8:5],,,,,3h[8:1],
4h[8:1],5h[8:1],6h[8:5],,,,,4h[8:1],
5h[8:1],6h[8:1],7p2[4:1],,,,,5,
{16}2,4,{8}3h[8:1],{16}8,5,{8}6-3[8:1],2,{4}6<3[8:5]/1-4[8:1],
1,{8}2,2,,1,8,7,
{4}6qq3[2:1],{8}7,7,,2,1-5[8:1],8,
1,7<4[8:1],2,1/7,,1,8-4[8:1],1,
3/8,2>5[8:1],7,8/2q5[8:3],,1,8,7,
{4}6-8[8:1],{8}1/6-4<1[2:1],1,,1,2,3,
{4}4-2[8:1],{8}1/4<8[4:1],1,,2,3,4,
{16}1-5[8:1],,,2,{8}1,4,{16}3-7[8:1],,,4,{8}3,6,
1/5-7[8:1],2,3,4,E2,E8,E4,E6,
{4}1-4[8:1],{8}1/8p7<5[8:5],7,,1,2,3,
{4}4-1[8:1],{8}4/6p3[2:1],7,,2,1,8,
{4}1-5[8:1],{8}1,6h[4:1],,2-4[8:1]*qq6[8:5],,2,
,,,,{4}5>1v4p8[4:3],{8}8,7,
{4}6h[4:3],,,7,
2/4,{8}1,8,,7h[4:1]/5h[4:1],,,{1}8pp4[4:3]/4pp8[4:3],
{2},B7/E7/B6/B2/E3/B3/Ch[4:1],
{8}1/5,{16}2-7[8:1],4,{8}3h[8:1],2>5[8:1],,2,{4}8h[4:1],
{8}4,{16}7-2[8:1],5,{8}6h[8:1],7<4[8:1],,7/3,1h[4:1],2,
8,7/3h[8:1],{16}6,2,{8}4h[4:1],,1w5[8:1],,1<3[2:1],
,,,,,,6h[8:1],5h[8:1],
8<5[8:1],{16}3,4,{8}8,1,,2-6[8:1],1-5[8:1],2,
1,{16}4,3,{8}2,8-4[8:1],,,2h[8:1],1h[8:1],
8h[8:1],7h[8:1],3-5[8:1],5-2[8:1],,8-4[8:1],,8/7h[4:1],
,2,4z8[8:3],6-2[4:1],{32},,,,,,,,,,,,,,,,3x/7x,
B7,{16}B3,{4},,{16},,{32}1,2,3,4,5,6,7,8,
{8}1/5-7[8:1],2,3/5-1[8:1],4,5,{16}2,8,{8}4,6,
1/8-6[8:1],2,3/8-4[8:1],4,8,{16}3,5,{8}1,7h[8:1],
2-4[8:1],4-8[8:1],2/7-3[8:1],6,7,4h[4:1],,7-5[8:1],
5-1[8:1],7/2-6[8:1],3,2,5h[8:3],4,3,2>5qq6[8:7],
,,,6,7,8,1,2<8pp8<6[8:5],
,,,,,,{4}3,
{8}2-5[8:1],1,2,7-4[8:1],8,7/1-5[8:1],2,{16}8/1,7,
{8}6,2h[8:1],{4}1p8[4:1],8<3[4:1],2b,
1-5[8:1],{8}1/7-4[8:1],{16}8,8,{8}7/2-5[8:1],1,2/8-4[8:1],{16}7,7,
{8}8/1,2,6/3>1[8:1],{16}4,4,{4}3<5[8:1]/7>1[8:1],7/3,
7/3,{8}8-4[8:1],{16}7,7,{8}8/1-5[8:1],2,1/7-3[8:1],{16}6,6,
{8}7/2-4[8:1],1,2/6-3[8:1],{16}7,7,{4}6/1-4[8:1]*-6[8:1],1,
{8}7/5>7[8:5],,,1,8,7,6qq3[2:1],5h[8:7],
,,,,,,{4}2-8[8:1],
{8}7-3[8:1],,,4-6[8:1],,,{4}7<4[8:1],
{8}8,{16}1,3,{8}2h[8:1],1,{32}8,7,6,5,4,3,2,1,{4}8-5[8:1]/4-1[8:1],
{1}8pp6[2:3]`4pp2[2:3],
{8},,,,,,,,3h[8:1],
4h[8:1],5h[8:1],6h[8:5],,,,,3h[8:1],
4h[8:1],5h[8:1],6h[8:1],{16}8,7,1,6,2,5,3,4,
{8}1>4[8:1],{16}8,8,{8}7,6-1[8:1],5-2[8:1],6,{4}5,
{8}8<5[8:1],{16}1,1,{8}2,3-8[8:1],4-7[8:1],3,{4}4,
{8}2>5[8:1],8/1,2,{16}7,8,{8}6,1/5,{4}2/4,
{16}1h[16:1],2h[16:1],8h[16:1],3h[16:1],7h[16:1],4h[16:1],6h[16:1],5h[16:1],,,{8}8x,{16},,,,1,
5,2,4,{8}3h[8:1],{16}8,4,7,5,6,4,7,3,{8}8h[8:1],
{16}1,7,3,5,{8}2h[8:1],{16}8,4,6,2,8,4,6,2,{8}7h[8:1],
{16}1,5,2,4,{8}3h[8:1],{16}7,7,8,6,{8}2h[4:1],{16},,1,3,
8,4,7,5,1,3,{8}2h[8:1],{16}7,7,5,5,4,4,2,2,
8,1,7,2,{8}6h[8:1],{16}5,7,4,6,2,3,1,7,{8}5h[8:1],
{16}8,8,4,4,6,6,{8}2h[8:1],{16}4,8,6,2,{8}4h[8:1],1,
{16}3,4,2,6,5,7,2,4,3,7,5,6,1-5[8:1],3,{8}2,
{16}1-3[8:1],,,6,1-7[8:1],,,5,1-5[8:1],,,6,{4}1>1>2>3<4<5<6<7>8>1[4:7],
{1}1,
{8},,,,,,,5,
4pp7[8:5],,,,,,,3-1[8:1],
,7-3[8:1],,5-1[8:1],,5>3[8:1]*<8[8:1],,5,
,,,2h[4:1],,4z8[1:1],,5s1[4:3],
,,,,,,,,{4}2/7,
{8}3h[4:1],4h[4:1],,6h[4:1],{4}5h[8:1],
{16}7-1[8:1],,,4,7-5[8:1],,,2,7-3[8:1],,,2,{4}7,
1>7[2:1],7,,A8,
1<3[2:1],3,,A2,
1q7[2:1],6,,A8,
1p3[2:1],4,,A2,
1q5[2:1],6,,C,
8p4[2:1],3,,C,
1s5[2:1],7,,E1,
,C,,E5,
{16},,,,,
||这是一个标记~
,
E
&inote_7=(125)
E
