&title=Cristalisia
&artist=onoken
&first=-0.613
&des=Rainmaker
&lv_5=13
&des_5=Rainmaker
&inote_5=
(134){4},,,1-5[8:1],
{1}Cf/5bpp4[2:5]*<4[2:5],
{4},,,,,,,,B2,
B4,B6,B8,
6,{8}7/5,{32}3,4,3,4,,,,5x/2x,,,,,,,,,,,,,{8}5,
4,3/7,{32}6,5,6,5,,,,4x/7x,,,,,,,,,,,,,{8}4,
5,6/2,{32}3,4,3,4,,,,5x/2x,,,,,,,,,,,,,{4}4q5[4:1],
5<4[4:1],,5-1[8:1],
6/5,4/2,{16}2,4,,4,{8}3,5/2,
{4}4/3,{8}6,5,{16}7,5,,5,{8}6,4/7,
{16}3,4,,1,{8}8,7/3,{16}6,5,,3,{8}4,5/2,
{16}6,4,,5,3,6,4,5/4,,7/2,,,{4}C,
7/1,8/2,{16}3,8,,8,{8}2,7/3,
{16}2,1,,,{8}7,8,{16}6,8,,8,{8}7,1/6,
{16}2,1,,4,{8}5,6/2,{16}7,8,,2,{8}1,8/3,
{16}7,1,,3,7,2,8,8/1,,7/2,,,{4}C,
{16}3b,4,2h[4:1],5,,,8,1,7h[4:1],2,,,5,7,4h[4:1],6,
,,6,4,5h[8:3],3,{48},,,,,,{24}6,7,8,1,2,3,{4}7b/4,
{16}6b,5,7h[4:1],4,,,1,8,2h[4:1],7,,,4,2,5h[4:1],3,
,,3,5,4h[8:3],6,{48},,,,,,{24}3,2,1,8,7,6,{4}5/2b,
{16}2b,4,3h[4:1],8,,,7,3,6h[4:1],1,,,2,6,3h[4:1],5,
,,4,3,7h[4:1],5,{48},,,,,,{24}5,6,7,8,1,2,{8}3/7b,6/4,
{16}3b,5,2h[4:1],4,,,7,2,6h[4:1],1,,,1,5,2h[4:1],4,
,,8,2,7h[4:1],3,{48},,,,,,{24}4,5,6,7,8,1,{8}2/6b,5/3,
{16}6b,4,5,3,,,{8}4/3,{4}2h[8:1]/6-4[8:1],{8}6/1,2,
{16}3,5,4,6,{8}7/5,{16}8,1/8,,7/5,,6,{8}6/2<3[2:1],3x/4x,
6h[4:1],,,7,{16}6,6,,2,2p1[4:1],4,3,5,
{8}2x,5x,{16}4x-8[8:1],4x,,1x,,2x,,3x,{4}7x/3xq5[4:1],
{2}5<3[4:1],{16}5x,5x,,,2,6,3,5,
{4}4q6[4:1],6<4[4:1],4,6,
{16}5,5,5,6/4,,,3,3,3,4/2,,,1,1,1,8/2,
,,7,7,7,8/6,,,2,8,3,7,4w8[8:1],5,{8}3,
,,,,,,,,,,,,,,,,{1}3<6[2:3],
,3<6[2:3],
{4},,,,3,
4,5,6,
{8}3,4,5,6,{16}1,8,2,7,3,6,4,5,
3,4,2,5,1,6,2,7,3,8,4,7,5,6,4,5h[16:9],
{32}B4,B5,B6,B7,B8,B1,B2,B3,E4,E5,E6,E7,E8,E1,E2,E3,{2}Ch[1:2],
{4},,,,,,,4-1[8:1]/5-8[8:1],
5b/4b/Cf/B7/B6/B2/B3,{16}7,6/2,,8/1,,3/7h[16:3],,,{8}5,4/6,
{16}2,6v1[8:1],3,3<2[16:3],,6,,3,,,,,{8}7/3,4/6,
{16}7b,5,6h[4:1],4,,2,2,6,1b,8,2h[4:1],7,,,{8}6,
{16}7,1,6,2,4/2,2x,8,7/1,,2/6,,5/3,,4,6,5,
{8}7b,1,{16}2/6,6,,1,,3/7,,,{8}8/1,2/4,
{16}3,5,4,6pp3[16:3],,1,,6/2h[16:5],,,,,{8}4x,6/2,
{16}1b,2,3,4/8b,,,7b,6,5,4/2b,,,{8}8/1,7/5,
{16}6,4,5,3,4,5/2,2,8,,7/1,,6/2h[16:5],,,,,3b,
2,4,5/3h[16:3],,,4,3,5,6/4h[16:3],,,5,4,6,5/7h[16:3],
,,4,6,3,5,2,6,{32}3,4,5,6,7,8,1,2,{8}3/7b,6/4,
{16}3,5,4,6h[16:3],,,5,6,4,3/5h[16:3],,,4,5,3,4/2h[16:3],
,,5,3,6,4,7,3,{32}6,5,4,3,2,1,8,7,{8}6/2b,3/5,
{16}1b,7,2h[4:1],6,,,4,2,5h[4:1],3,,,3,5,4h[4:1],6,
,,7,4,6h[4:1],2,{32},,,,2,3,4,5,6,7,8,1,{8}2/4b,3,
{16}1,7,2h[4:1],6,,,4,2,5h[4:1],3,,,3,5,4h[4:1],6,
,,7,4,6h[16:3],2,,1,{32}2/6b,3,4,5,6,7,8,1,6/2,5,4,3,2,1,8,7,
{8}6/2b,4/8,{16}2,4/2V48[16:3],,6/4,,2/8,,,{8}7,5/1,
{16}2,4,3,5,,7/1,{32},,6/2,3,4,5,6,7,8,1,2,3,{8}4/6,{16}6,5,
{8}7,1,{16}8/2,8/2pp5[16:3],,7/3,,6/2,,,{8}8,7/3,
{16}6,4,5,3,,8/1,,2/4,,7/5,,5b/4b,,,2,4,
{8}3,5/1,{16}7,5/7V51[16:3],,1/8,,7/3,,,{8}2,3/7,
{16}2,4,3,5,,2/8,{32},,3/7,6,5,4,3,2,1,8,7,6,{8}5/3b,{16}1,7,
1/7,6/1,5/1,4/1,,,7/2,3/7,4/7,5/7,,,{8}8/1,6/3,
{16}2,4,2,4,,1/8,,7/3,,2/6,,3/4,,6,5,7,
8/2,3/8,4/8,5/8,,,2/7,6/2,5/2,4/2h[16:3],,,{8}8,6/2,
{16}7,5,7,5,,6,,5/3,,8/1,,2b>8[16:17]/7b<1[16:17],
E
