&title=[哈基杯场外]恋のセレナーデ
&artist=Halozy
&first=0.33
&des=众魂眷恋的西行寺
&lv_5=13
&inote_5=(128)
{4}7h[4:5],4,,3,
{4},2,{8},1/8,1h[2:3]/8,,
{4},8,,7,
{4},6,{8},5/4,5/4-8[4:1],,
{4},5-2[4:1],,3q8[4:1],
{4},6<1[4:1],{8},2,2v5[4:1],,
{4},8v2[4:1],,5v8[4:1],
{4},3p8[2:1],{8},6,6h[4:1],,
{8},,1,2h[8:3],,,7,6h[8:3],
{8},,2,4h[8:3],,5v8[4:1],5,4,
{8},,2h[4:1],8h[4:1],,,7pp3[2:1],2,
{8}7,,4,,,5,5,8,
{8}7/4,,7/4,,6/3,,6/3,,
{8}2-4[8:1],,5-1[8:1],,8-6[8:1],,1,2,
{8}3,3,5,5,2,2,6,6,
{16}1,7,1,7,2,8,2,8,1-5[8:1],,1,,1/7,,,,
{16}8b<5[8:1]/4b,,,2,8,,1,,4-7[8:1],,,2,4,,3,,
8<5[8:1],,,2,8,,1,,
{8}5q2[8:1],6,4p7[8:1],3,
8<5[8:1],,4-8[8:1]/8-3[8:1],2,8<5[8:1],,4/8,2,
6-1[8:1],7,3-7[8:1],2,5w1[8:1],,5b,,
{16}
8/7h[16:3],,,6h[16:3],,,5,,
4q8[8:1],,,2,4,,3,,
{8}7v4[8:1],8,2v5[8:1],1,6q2[8:1],7,4,4,
{16}1<6[8:1],,,3,1,,2,,5p1[8:1],,,7,5,,6,,
8>3[8:1],,,,4<7[8:1],,,,2,,,3,8,,8,,
{8}2h[4:1],,4,,6h[4:1]/5,,2,,
1h[4:1]/3,,5,,7h[4:1]/5,,
3q7[8:1],,8q4[8:1],,6>3[8:1],7,
8q4[8:1],,6>3[8:1],7,8q4[8:1],,6,7,
{16}8h[16:3],,,5,7,,4,,
{8}2-6[8:1],,4h[4:1],,8>3[8:1],,6h[4:1],,5-1[8:1],,,,
2>4[8:1],,6<8[8:1],,5qq1[16:5],,8,7,6>3[8:1],
{16},,2,,,,8-3[8:1]/4-8[8:1],,,,,,,,
{8}4-1[8:1]/1-6[8:1],,4b/1,,
{16}8>3[8:1],,,6,8,,6,,4-8[8:1],,,7,4,,7,,
{16}1>4[4:1],,,,6h[4:1],,,,,,7,,8/4<7[4:1],,3,,
{16}7>2[4:1],,,,2>5[4:1],,,,5<8[4:1],,,1s5[16:13],,,1z5[8:5],,
{16},,,,,,,,,,,,,,,,
{16}3>8[8:1],,,4,3,,5,,6<1[8:1],,,5,6,,4,,
{16}2v5[8:1],,8,,6-1[8:1],,,,5v2[8:1],,5,,6-1[8:1],,,,
{16}3-8[8:1],,,7,3,,6,,5-8[8:1],,,1,5,,3,,
{16}4-2[8:1],,,,1-5[8:1],,,,6qq8[4:1],,,,,,,,
{16}1w5[4:1],,,,,,,,,,7,,3,,8,,
{16}1b,,2/8,,7,,1,6,1q5[8:1],,2,,5q1[8:1],,6,,
{16}7>2[8:1],,,,5p1[8:1],,6,,7>2[8:1],,,,5-1[8:1],,6,,
{16}7v2[8:1],,,,,,3,4,5p1[4:1],,4,,1p5[4:1],,8,,
{16}5-3[8:1],,,,6-2[8:1],,,,7-1[8:1],,,,7,,,,
{16}7h[8:1]/2,,4,,1/5h[8:1],,4,,7/3h[8:1],,6,,1>4[8:1]/5<8[8:1],,8/4,,
{16}1p5[8:1]/5p1[8:1],,,,1>4[8:1]/5,,,,{32}5,6,7,8,,,,,{16}3s7[4:1],,3,,
{16}3h[2:1],,,,,,,,7,,8/2,,4/5,,1/7,,
{16}4h[2:1]/5h[2:1],,,,,,,,,,3,,1-5[8:1]/8-4[8:1],,7,,
{16}1b/8b,,,,7,,2,6,2q6[8:1],,2,,6q2[8:1],,7,,
{16}7<4[8:1],,,,3-7[8:1]/7>2[8:1],,1,,7<4[8:1],,,,3-7[8:1]/7>2[8:1],,1,,
{16}7<4[8:1],,,,,,3,2,1q5[8:1],,7-3[8:1],,1p5[8:1],,7,,
{16}1pp4[2:1],,,,7,,,,6,,,,5,,,,
{16}7/3h[8:1],,4,,6h[8:1]/2,,5,,2h[8:1]/7,,4,,5-8[8:1]/1,,6,,
{16}5b/8bv2[8:1],,,,2b-5[8:1]/8b,,,,{32}5b/2b,6,7,8,1<6[8:1],,,,{16}4,,3/1,,
{16}2q6[8:1],,1,,7p3[8:1],,8,,1v4[8:1],,2,,4v7[8:1],,5,,
{16}6-2[8:1],,5,,8-4[8:1],,1,,3V16[8:1],,6-3[8:1],,3q6[1:1],,5,,
{8}5b,,,,,,,,
{8}8h[8:5],,,,,3h[8:1],5h[8:1],4h[1:1],
{8}8<6[8:1],,,,5<7[8:1],,,,
{8}8h[4:1],,2h[4:1],,6h[4:1],,4h[4:1],,
{16}8-5[8:1],,,1,8,,2,,6-1[8:1],,,3,6,,4,,
{8}5>2[4:1],,2<7[4:1],,7>4[3:1],6,6,,
{16}5p1[8:1],,,3,5,,4,,7p3[8:1],,,3,7,,2,,
{8}1h[2:1],2,8,7,6,5/4,5h[4:1]/4,,
{16}1b-4[8:1],,,8,,,8,,3-8[8:1],,,7,,,7,,
{8}6p2[4:1]/2p6[4:1],,,,,1/7,1>6[1:1]/7,8,
{8}1,,8,,7,,8,,
{8}1<3[4:3],,1,,,2,2,,
{16}1-5[8:1],,,8,,,8,,7-3[8:1],,,4,,,4,,
{8}2-5[4:1],,5-8[4:1],,8>2[4:1],,6,6,
{8}5q8[2:1],,,,3q6[2:1],,,,
{8}1q4[2:1]*p6[2:1],,,,,,,,
{8},,,,,,,,
{8},,,,,,,,
E
