&title=超兽武装
&artist=刘罡,陈洁丽
&first=-1.03
&des=hxmy
&lv_5=13+
&inote_2=
&inote_5=(160)
{4},,,
{8}4h,2h/6h,
{8},,
{8}3,4,2,6,5,7,3,4,1,6,5,8,2-5[8:1],,12,,
{8}6,5,7,3,4,2,6,5,8,3,4,1-5[8:1],7,18,,,
{8}2-4[8:1],1,2,8-4[8:1],1,8,1-5[8:1],8,1,7-5[8:1],8,7,2-4[8:1]*-5[8:1],,2,,
{8}7-5[8:1],8,7,1-5[8:1],8,1,8-4[8:1],1,8,1,2,3,2b/8b,,,,
{8}3,,2/1,,28,7p3[8:1]/3,,2/7,,2,4h[4:1]/6,,5,6,7h[4:1],,
{8}5h[4:1],,4,,26,8z4[8:1],,8/1,,2,3/5h[4:1],,2,3,4qq4[4:1],,
{8}4pp4[4:1],,6,,8,7,,17,,3,4/6h[4:1],,4,3,2<6[4:1],,
{8}6>2[4:1],,2,,5,4v2[8:1]/8v6[8:1],,8b/4b,,,34,1,56,8,26,,
{8}3q7[4:1],,7q3[4:1],,3,4,,64,,7,8h[4:1]/2,,1,2,3-7[8:1],,
{8}3b/5-8[8:1],,5b/1-4[8:1],,1b/6V48[4:1],,6,3,,1,6/2h[4:1],,8,7,6-4[8:1],,
{8}3-7[8:1],,8,,6,8<5[8:1]/1>4[8:1],,81,,3,8,,1,24,5,63,7,,12,,34,2h[4:1]/5,,4,4V68[8:2],,1,,5V31[8:2],,8,,
{16}6pp5[2:1],,,,2,,,,4<2[2:1],,,,2,,
{8},,,3qq7[16:12],,5,,6,,8,,1,,2<4[16:12],,4,,,,3,,2,,,,
{16}3qq4[2:1],,,,7,,,,5>7[2:1],,,,7,,
{8},,,6pp2[16:12],,4,,3,,1,,8-4[8:1],,8/2-6[8:1],,12,,{16}7,,4,5,4,,7,,3,4,3,,6,,,,
{16}7pp6[2:1],,,,3,,,,5<3[2:1],,,,3,,
{8},,,4qq8[16:12],,6,,7,,1,,2,,3>5[16:12],,5,,,,4,,3,,,,
{16}3qq4[2:1],,,,7,,,,5>7[2:1],,,,6,,
{8},,,4,,3,,21,,6b/8,7,7,7,1/3b,2,2,2,6/5b,{24}5,6,4,5,,,{8}4b/3,{24}4,3,5,4,,,
{16}6,3,6,3,6b-3[8:1],,,,
{16}2/6,,,,1-5[8:1],,2-4[8:1],,1,,2,,,,1,,47,,6,5,7,,8,,71,,,,3b-6[8:1],,,,
{16}3/7,,,,8-4[8:1],,7-5[8:1],,8,,7,,,,1,,26,,3,4,2,,1,,28,,,,3b-8[8:1],,,,
{16}37,,,,5-1[8:1],,6-8[8:1],,5,,6,,,,1,,27,,3,4,2,,6,,17,,8,,12,,
{16}56,,78,,34,,18,,5-8[8:1]/4-1[8:1],,,,4b/5b,,,,6,6,5,,3,3,4,,2h[8:1]/5,,1,8,7,6,
{16}5b-8[8:1]/1,,,,1-4[8:1],,3-8[8:1],,1,,3,,,,5,,16,,7,8,6,,1-5[8:1],,4-7[8:1],,1,,4,,,,
{16}8b-5[8:1],,,,4-1[8:1],,2-5[8:1],,4,,2,,,,1,,38,,2,1,3,,8-4[8:1],,2,,18,,2<7[8:1],,,,
{16}2/6b>3[8:1],,,,1-4[8:1],,8-5[8:1],,1,,8,,,,1,,27,,4,5,4,,36,,2pp4[8:1]/7qq5[8:1],,18,,27,,,,
8-6[16:1],,1-5[16:1],,8-4[8:1],,1-3[8:1],,8,,1,,,,1,,8b-6[8:1]/1b-5[8:1],,,,8b-4[8:1]/1b-3[8:1],,,,8b<6[8:1]/1bp5[8:1],,,,8bq4[8:1]/1b>3[8:1],,,,8b/1b,,,,
{8}34,2,2,2,56,67,7,7,7,7,34,32,2,2,2,2,
{32}1>4[8:1]*-4[8:1],,,,,,,,1b<6[8:1]*-6[8:1],,,,,,,,1b,,,,,,,,
{8}56,67,8,8,8,8,34,23,1,1,1,1,56,67,8,8,8,8,
{32}8<5[8:1]*-5[8:1],,,,,,,,8b>3[8:1]*-3[8:1],,,,,,,,8b,,,,,,,,
{32}1-3[8:1]/6,,,,6,,,,1-5[8:1]/7,,,,7,,,,8/1,,7,,6,,,,
{32}8-6[8:1]/3,,,,3,,,,8-4[8:1]/2,,,,2,,,,1/8,,2,,3,,,,
{32}2b-4[8:1]/7,,,,7,,,,2-6[8:1]/8,,,,8,,,,2b/1,,8,,7,,,,
{32}7b-5[8:1]/2,,,,2,,,,7-3[8:1]/1,,,,1,,,,7b/8,,1,,2<2[16:20]*>2[16:20],,,,,2b,
&inote_6=(159.96)
{4},,,
{8}4h,2h/6h,
{8},,
{8}3,4,2,6,5,7,3,4,1,6,5,8,2-5[8:1],,12,,
{8}6,5,7,3,4,2,6,5,8,3,4,1-5[8:1],7,18,,,
{8}2-4[8:1],1,2,8-4[8:1],1,8,1-5[8:1],8,1,7-5[8:1],8,7,2-4[8:1]*-5[8:1],,2,,
{8}7-5[8:1],8,7,1-5[8:1],8,1,8-4[8:1],1,8,1,2,3,2b/8b,,,,
{8}3,,2/1,,28,7p3[8:1]/3,,2/7,,2,4h[4:1]/6,,5,6,7h[4:1],,
{8}5h[4:1],,4,,26,8z4[8:1],,8/1,,2,3/5h[4:1],,2,3,4qq4[4:1],,
{8}4pp4[4:1],,6,,8,7,,17,,3,4/6h[4:1],,4,3,2<6[4:1],,
{8}6>2[4:1],,2,,5,4v2[8:1]/8v6[8:1],,8b/4b,,,34,1,56,8,26,,
{8}3q7[4:1],,7q3[4:1],,3,4,,64,,7,8h[4:1]/2,,1,2,3-7[8:1],,
{8}3b/5-8[8:1],,5b/1-4[8:1],,1b/6V48[4:1],,6,3,,1,6/2h[4:1],,8,7,6-4[8:1],,
{8}3-7[8:1],,8,,6,8<5[8:1]/1>4[8:1],,81,,3,8,,1,24,5,63,7,,12,,34,2h[4:1]/5,,4,4V68[8:2],,1,,5V31[8:2],,8,,
{16}6pp5[2:1],,,,2,,,,4<2[2:1],,,,2,,
{8},,,3qq7[16:12],,5,,6,,8,,1,,2<4[16:12],,4,,,,3,,2,,,,
{16}3qq4[2:1],,,,7,,,,5>7[2:1],,,,7,,
{8},,,6pp2[16:12],,4,,3,,1,,8-4[8:1],,8/2-6[8:1],,12,,{16}7,,4,5,4,,7,,3,4,3,,6,,,,
{16}7pp6[2:1],,,,3,,,,5<3[2:1],,,,3,,
{8},,,4qq8[16:12],,6,,7,,1,,2,,3>5[16:12],,5,,,,4,,3,,,,
{16}3qq4[2:1],,,,7,,,,5>7[2:1],,,,6,,
{8},,,4,,3,,2,,6b/8,7,7,7,1/3b,2,2,2,6/5b,{24}5,6,4,5,,,{8}4b/3,{24}4,3,5,4,,,
