&title=月詠に鳴る
&artist=Feryquitous
&first=0
&des=Ink.
&lv_5=14
&inote_5=(180)
{1}
,
{8}
2-7[8:3],,,7-4[8:3],,,4<3[1:1],,
{1}
,
{8}
7qq8[4:3],,,3,,,8>7[4:3],,,4h[8:3],,,,,,,
{8}
7-2[8:3],,,2-5[8:3],,,5>6[1:1],,
{1}
,
{8}
2pp1[4:3],,,6,,,1<3[4:3],,,5h[4:1],,,
{8}
8,7,6,5,4h[4:1]/2h[8:3],,,,5h[8:5],,4h[8:3],,,,
{8}
45,,6pp5[8:5],,,3,3h[8:3],,,,,5^2[8:3],6,7,,,,,
{8}
1,2,3,4,5h[4:1]/7h[8:3],,,,4h[8:5],,5h[8:3],,,,
{8}
45,,3V15[2:1],,6,,5V31[8:3],,7,7h[4:1],,,,
{4}
1h[4:1],3h[4:1],1h[2:1],7h[4:1],
{8}
,7,1pp3[4:1],2,1/3>7[3:1],,8^5[4:1],,
{8}
4V28[8:3],4,,8V64[8:3],8,,4qq8[8:3],,6,6h[4:1],,,
{8}
5,6,7,1V38[4:1],2,
{8}
1/8-4[8:1],,7-4[8:1],7,,
{8}
2p5[4:1],,5>7[8:3],5,,7V13[4:1],,6,,5-8[8:1]*-2[8:1],5,,,,
{8}
1h[4:1]/7h[4:1],,,17,,
{4}
2^5[8:1],8h[8:1],1-4[8:1],3h[8:1],8^3[8:1],6h[8:1],6bqq8[2:1],,
{8}
3,,2^5[8:1],,2-6[8:1],,,,1-3[8:1],1,1-6[8:1]*-5[8:1],,1,,,,
{4}
4qq5[2:1],,8qq1[2:1],,2,2q6[4:1]*p6[4:1],2,,
{8}
7,,7^4[8:1],,7-3[8:1],,,,8^6[8:1],8,8p4[8:1]*q4[8:1],,8,,,,
{4}
6V48[8:3],,3V15[8:3],,7,7V53[4:1]*V13[4:1],7,,
{6}
2b/4V68[4:1],1,2,3V57[4:1],8,1,2V46[4:1],7,8,
{6}
1V35[4:1],6,7,8V24[4:1],5,6,7V13[4:1],4,5,
{6}
6V82[4:1],3,4,5,5,5,
{6}
6b/4^1[8:1],7,6,5^2[8:1],8,7,6^3[8:1],1,8,
{6}
7^4[8:1],2,1,8^5[8:1],3,2,1^6[8:1],4,3,
{6}
2^7[8:1],5,4,
{12}
3,3,3,,8,8q5[12:17],8b>5[12:16],,,
{1}
,
{4}
,,,
{8}
3h[4:1],4,6h[4:1],5s1[16:5],4z8[8:1],,,,,,
{8}
24,3,57,6,4,5<1[8:3],3h[16:1],3h[16:1],3h[16:1],3qq8[16:6]*pp7[16:6],,,,,,,
{16}
3,,6h[8:1],,4h,5h,3h,6h,4qq2[4:1],,8qq6[4:1],,,,,,,,,,
{8}
7q6[4:1]/2p3[4:1],,,,,,
{8}
3,6,4-2[8:1],5-7[8:1],4,5,1h,
{16}
1,1,1,1,2bz6[4:1]/8s4[4:1],,,,,,,,,,
{4}
,
{16}
4h[8:1]/5h[8:1],,,,1s5[2:1],8,2,7,1,,,,
{8}
8h[8:1],,7h[8:1],,6h[8:1],,5h[8:1],,
{8}
4h[8:1]/6^8[8:1],6,6/3h[8:1],,2h[8:1],,1h[8:1],,
{8}
1v2[8:1]/8h[8:1],2-4[8:1],7h[8:1],,6h[8:1],,5h[8:1],,
{8}
5V74[4:1]/4h[8:1],,3h[8:1],,2h[8:1],,1h[8:1],,
{8}
8h[8:1]/2^4[8:1],,7h[8:1],,6h[8:1],,5h[8:1],,
{8}
4h[8:1]/6^8[8:1],6,6/3h[8:1],,2h[8:1],,1h[8:1],,
{8}
8h[8:1]/2-8[8:1],3,2/7h[8:1],,6h[8:1],,5h[8:1]/1,1,
{8}
3b/7b,,
{4}
,4w8[8:1],4b,
{16}
2,6,3,5,4^1[8:1],,7^4[8:1],,4V26[4:1],,7,,8,,,,,,
{8}
1^4[8:1],8,7,6^1[8:1],5,4,3,
{8}
2-6[8:1],1-5[8:1],2-4[8:1],1^6[8:1],2pp5[8:3],1,2,7h[4:1],,,,
{16}
58,,4,7,3,6,2,5,1,4,
{8}
2-6[8:1],6-2[8:1],2,8V64[4:1],,1,2,3,
{8}
4^1[8:1],5,6,7^4[8:1],8,1,2,3,
{16}
2,4,3,5,4,6,5,7,6,8,5,7,4,6,3,5,2,,
{8}
2^8[8:1],3,4,5^8[8:1],5,4,3,
{6}
2bq6[8:1],7,8,1b<3[16:3],5,4,
{6}
2bs6[4:1],,8h,7h,5h,4h,
{6}
7bV15[16:3],1,2,3bV51[16:3],5,6,
{6}
7bs3[4:1],8,1,2h[4:1],,,
{12}
3b,4,2,6,5,7,2,2,4,5,5,7,
{16}
3,4,5,6,4,5,6,7,5,6,7,8,4,5,6,7,
{8}
8V64[4:1],2,4-8[4:1],,8<4[4:1],3,4pp7[8:3],,1h[4:1],,,,
{32}
1b,2,3,4,5,6,7,8,1b,2,3,4,5,6,7,8,
{8}
1-6[8:1],6-4[8:1],1V73[4:1],,1,3,2^7[8:1],4,
{8}
2-6[8:1],5,2,7,8-4[8:1],6,8,,
{8}
5^8[8:1],4,35,2,1^4[8:1],8,17,6,
{8}
5,36,4^1[8:1],8,
{16}
48,7,6,5,48,7,6,5,
{8}
4/8-4[8:1],57,8,3,2-5[8:1],5-1[8:1],2,7,
{8}
6-4[8:1],2,6-1[8:1],1-5[8:1],6,2,3,,
{8}
34,2,18,7,65,4,65,7,17,64,53,28,
{16}
3,4,5,6,2,3,4,5,
{16}
1h,8h,2h,7h,3h,6h,4h,5h,
{8}
3,2,7^2[8:1],5,
{8}
7-3[8:1],4,7,2,1-5[8:1],3,1,,
{8}
4^1[8:1],5,46,7,8^5[8:1],1,28,3,
{8}
4,36,5^8[8:1],1,
{16}
15,2,3,4,15,2,3,4,
{8}
5/1-5[8:1],24,1,6,7-4[8:1],4-8[8:1],7,2,
{8}
1-3[8:1],7,1-5[8:1],5-2[8:1],1,6,7h[4:1],,
{8}
3,24,35,46,57,68,17,28,
{16}
3,1,2,8,1,7,8,6,5,7,4,6,3,5,2,4,
{8}
1bq5[2:3]*>5[2:3],,,,,,,,
{1}
,
{8}
7qq8[4:3],,,3,,,8>7[4:3],,,4h[8:3],,,,,,,
{4}
1-7[4:5]*>5[4:5],,,,,,,,
{8}
7-1[4:1],,,6-2[4:1],,,8z4[16:21],,,
{16}
2,,,,1,,,,8,,8-4[4:1]*-4[4:1],8,8,8,
