&title=I'm So Happy
&artist=Ryu☆
&first=0
&des=譜面-200号
&lv_5=12+
&inote_5=(181){1},
{8},3/4,3/4,1b,,
{16}6,5,6,,2b,,,,
3,4,2,4,1,4,8,4,7b-3[8:1],,,,,,,,
{8}4h[8:13],,,,,1h[128:1],,,2h[128:1],,,,3,3,{16}2,4,3,5,
{8}4h[8:13],,,,,8h[128:1],,,7-5[8:1],,7,,6,6,{16}7,5,6,4,
5-7[8:1],,4,,3,,2,,1,,7,8,,1,8,,2/6,,3,4,,5,4,
,6/5,,7,5h[8:1],,6,5,,
4-2[8:1],,5,,6,,7,,8,,2,1,2,7,8,7,1/6,,4,5,,6,5,,
3/7,,1,8,,7,8,,2-5[8:1]/6-1[8:1],,,,2/6,,,,,,
{8}8<1[2:3],1,2,3h[1:1],,,,,,,,,,,,,
{8}1pp4[2:3],8,7,6h[1:1],,,,,,,,,,,,,,
8V62[2:3],,4h[1:1],,,,,,,,,,,,,,
1V37[2:3],,5h[1:1],,,,,,,,,,,,,
5,6h[1287:1],7,
{16}1/8,,7,,1/8,,2,,1/8h[8:1],2,3,,7/4,,6,,
4/5,,3,,2/1,,8,,1h[8:1]/7,6,5,,3/4,,2,,
8/1,,2,,8/1,,7,,8/1h[8:1],7,6,,2/5,,3,,
5/4,,6,,7/8,,1,,8h[8:1]/2,3,4,,6/5,,7,,
{8}8-6[8:1],8,2-4[8:1],2,5-1[8:1],{16}5,,3,,3,,
8<5[8:1],,8,,1>4[8:1],,1,,6-1[8:1],,6,,3,,3,,
4,8,4,8,2,6,2,6,4,8,4,8,3,8,2,8,
{8}1-5[8:1],,2-6[8:1],,3-7[8:1],,4-8[8:1],,
5bw1[4:1],5b,,,,,,,
{16}2V48[16:3],,,8v5[8:1],2,,7,,6h[16:3],,,4,6,,3,,
{16}2h[8:1]/5h[8:1],,,4h[8:1]/7h[8:1],,,1/8,,
2>5[8:1],,1,,8,,7,,
{16}6V85[16:3],,,5-1[8:1],6,,3,,2-4[8:1],,,8,2,,7,,
5h[8:1]/6h[8:1],,,3h[8:1]/4h[8:1],,,2/5,,1h[8:1],,8h[8:1],,7h[8:1],,6,,
{16}7V51[16:3],,,1v4[8:1],7,,2,,3h[16:3],,,5,3,,6,,
{16}7h[8:1]/4h[8:1],,,5h[8:1]/2h[8:1],,,8/1,,
7<4[8:1],,8,,1,,2,,
3b,,,4/2,4b/2b,,1,,8b/7b,,,1/6,1b/6b,,5,,4b/6b,,,3/7,3b/7b,,2,,1-5[8:1],,7-3[8:1],,1,,7,,
{16}2V84[16:3],,,4v7[8:1],2,,5,,6h[16:3],,,8,6,,1,,
{16}2,,5,4,,3,4,,
2/1,,8/7,,6/5,,4/3,,
{16}6V84[16:3]/5,,,4v1[8:1],6,,3,,2>5[8:1],,,8,2,,7,,
6,,3,4,,5,4,,6-1[8:1],,2-5[8:1],,6,,2,,
{16}7V15[16:3],,,5v2[8:1],7,,4,,3h[16:3],,,1,3,,8,,
{16}7,,4,5,,6,5,,
{8}3/4,2/1,8/7,6/5,
{16}4b-7[8:1]/3,,,2,2b[8:1],,1,,8b-4[8:1],,,7,7b,,6,,5b-1[8:1],,,4,4b,,3,,
{16}2h[8:1]/8h[8:1],,,4h[8:1]/3h[8:1],,,4/3,,
5-1[1:1]/2,,,,{4}3,,3,,3,{8},1,2,3,4-8[1:1],,6,,,,6,,,,6,,5w1[8:1],,5b,,
{16}6,2,6,2,6,4,6,4,6,8,6,8h[16:5],6b,,,,
4,8,4,8,4,2,4,2,4,6,4,6h[16:5],4b,,,,
5,7,5,7,5,1,5,1,5,3,5,3,5,4,5,6,
{4}5b-2[8:1],5/1b-6[8:1],7b-4[8:1]/1,3b-8[8:1]/7,
7pp5[8:13]/3,,,,
{8}2b,2b,2b,,,4,3,2,
1<6[8:1],1,
5-2[8:1],5,
1<6[8:1],1,
5-8[8:1],4-1[8:1],,
4,7,6,5-1[8:1],4,5,,
8>3[8:1],8,
4-7[8:1],4,
8>3[8:1],8,
4-1[8:1],5-8[8:1],,5,2,3,4-1[8:1],5,6,7,
8>3[8:1],4-7[8:1],8,4,
8>3[8:1],8,
4-1[8:1],5-8[8:1],,5,2,3,4-8[8:1],5,4,,
1<6[8:1],5-2[8:1],1,5,
1<6[8:1],1,5b-2[8:1],5
,3b-8[8:1]/5,,3/7b-4[8:1],,1b-6[8:1]/7,,1/6,7,
8>3[8:1],4-7[8:1],8,4,8>3[8:1],4-7[8:1],8-5[8:1],4-1[8:1],,
4,6,7,8-4[8:1],1,8,,
1<6[8:1],5-2[8:1],1,5,1<6[8:1],5-2[8:1],1-4[8:1],5-8[8:1],,
5,3,2,1-5[8:1],8,7,6,
{16}7,5,7,5,7,3,7,3,7,1,7,1h[16:5],7b,,,,
4,2,4,2,4,8,4,8,4,6,4,6h[16:5],4b,,,,
5,7,5,8,5,1,5,2,5,3,5,4,5,6,5,7,
{8}5b-2[8:1],,5/3b-8[8:1],,1b-6[8:1]/3,,7b-4[8:1]/1,,2bqq5[1:1]/7,
