&title=HYDRA
&artist=James Landino × Akira Complex
&first=0
&des=Bradish aka. Furple
&des_5=Bradish aka. Furple
&des_7=Furple
&lv_5=14
&lv_7=[藏]13+
&inote_5=(160){4},,,,{1}1bx/Cf/B7/B3,
{8},,,,,6/8,{16},3/1,,,{1}8b/Cf/B2/B6,
{8},,,,,1/4,{16},8/5,{32},,,,E8,
E7,E6,E5,{8}E4,{4}1bx/Cf,{8},,,,,,,,,6/7,
{16},3/2,,,{4}8b<4[8:1],
{32}E8,E7,E6,E5,{8}E4,{4}1b>5[8:1],{32}E2,E3,E4,E5,{8}E6,
{16}7h[8:1]/8h[8:1],,,3h[8:1]/5h[8:1],,,{8}2h[8:1]/1h[8:1],{16},6h[8:1]/4h[8:1],,,{4}2/1w5[8:1],
1b`Cf,4x,,4,
,4,{8},6/5,{16},1/3,,,{4}7/8,
5,,5,
,5,{8},3/4,{16},7/5,,,{4}1w5[8:1],
1`Cf,{16}2,1,3,8,4,7,5,6,
{8}3b,2,{16}7,8,6,1,5,2,4,3,{32}2,1,8,7,6,5,4,3,
{16}2x/1x,,,7/5,,,{8}2/4,{16}8x/1x,,,7/5,,,{8}2/4-1z5-8[4:3],
,,,,,,,,{4}2bx>5[8:1],
{32}2/6x,7x,{16}8x,,,{8}1-5[8:1],8,{4}1,
{16}2,1,,7,{8}8,5,3-8[8:1]/4-8[8:1],2/5,{4}3x/4x,
7bx<4[8:1],{32}7/3x,2x,{16}1x,,,{8}8-4[8:1],1,{4}8,
{16}7,8,,2,{8}1,4,6-1[8:1]/5-1[8:1],7/4,{4}6x/5x,
2xw6[8:1],2b,{8}8v5[8:1]/2v5[8:1],7/3,{4}8x/2x,
{16}3,4,,6,{8}5,7/3,8-4[8:1]/2-6[8:1],4/6,{4}8/2,
{2}8x-5[8:1]*q5[8:1],8x-5[8:1]*z4[8:1],
{16}2x/1x-5[16:1],,,3x-7[16:1],,,{8}4x-8[16:1],{16},4x>8[16:3],,,{4}6x,
7b<4b[8:1],{32}7/3x,2x,{16}1x,,,{8}8-4[8:1],1,{4}8,
{16}7,8,,2,{8}1,4,6-1[8:1]/5-1[8:1],7/4,{4}6x/5x,
2bx>5b[8:1],{32}2/6x,7x,{16}8x,,,{8}1-5[8:1],8,{4}1,
{16}2,1,,7,{8}8,5,3-8[8:1]/4-8[8:1],2/5,{4}3x/4x,
7x-4[8:1]*-2[8:1],7b`Cf,{16}1,3,8,2,7,1,6,8,
{4}5h[8:1],{16}8,6,8,6,1,7,1,7,{32}1,2,3,4,5,6,7,8,
{2}5b/1bx>5[8:1],6b<2[8:1],
{16}3x-8[16:1],,,7x-4[16:1],,,{8}1x-5[16:1],{16},6x>8[16:3],,,{4}3x,
Cf,{8}7,{16}1,8,{8}2,3,4/5,6,
7/8,6,{16}5/1,2,3,4,{8}5/6,1/3,{16},8/6,,,{4}2b/Cf,
{16}7,8,7,8,6,5,6,5,{8}6,8/7,
{16}3,4,{8}3,{16}2,1,2,8,{8}3,8/6,{16},1/3,{32},,,,4x-8[8:1]/5x-1[8:1],
3x/6x,{16}2x/7x,,,{4}4b/5b`Cf,{16}7,8,7,1,7,2,7,3,
{8}4x/7x,5/6,{16}2,1,2,8,2,7,2,6,{32}5,4,3,2,1,8,7,6,
{2}5bx/1bxV74[8:1],8bV25[8:1],
{16}1-5b[16:1],,,1x/4-8b[16:1],,,{8}4x/6-2b[16:1],{16},6x/1>6b[16:3],,,{4}1x,
{1}Cf,
{4},,,,8h[4:7],
E4,E3,E2,
E1,E8,E7,E6,
{8}5x>1[8:3],,,1pp5[8:9],,,{4}7h[1:1],
,,,,4h[4:7],
E8,E7,E6,
E5,E4,E3,E2,
{8}8xqq4[2:3],4,,4,,4,,4,
,3,,3,,3,,3,
2h[8:15],1h[8:1],,8h[8:1],,7h[8:1],,6h[8:1],
,5h[8:1],,4h[8:1],,3h[8:1],,1x,
2xpp6[2:3],1,,1,,1,,1,
,8,,8,,8,,8,
7h[8:15],6h[8:1],,5h[8:1],,4h[8:1],,3h[8:1],
,2h[8:1],,1h[8:1],,8h[8:1],,8x,
{16}6xh[8:1]/1xh[8:1],,,8h[8:1]/3h[8:1],,,{8}4/5,{16}3h[8:1]/8h[8:1],,,1h[8:1]/6h[8:1],,,{8}5/4,
{16}7xh[8:1]/8xh[8:1],,,3h[8:1]/4h[8:1],,,{8}1/2,{16}2h[8:1]/1h[8:1],,,6h[8:1]/5h[8:1],,,{8}8/7,
{16}1x/3xh[8:1],,,7h[8:1]/1h[16:1],,,{8}4/3,{16}8/6h[8:1],,,2h[8:1]/8h[16:1],,,{8}5/6,
{16}4xh[8:1]/1xh[16:1],,,8h[8:1]/5h[16:1],,,{8}6/7,{4}3-6[8:1]/2-6[8:1],2x/3x,
{16}8x,1,2,8x,7,6,1x,2,3,7x,6,5,4x,3,2,1,
{4}8bx/4b,{16}5/4x,6,7,8,1x,2,3x,4,{32}5x/1,8,7,6,5,4,3,2,
{16}1b/5b,,,2/7,,,{8}1/8,{16}4b/5b,,,6/7,,,{8}3/2,
{1}6b-1-4[2:1]/7b-3[2:1],
{16}1/6b,2,3,4,{8}5h[8:1],{16}8,5h[8:1],,8,5,8,4,7,3,6,
1/5b,2,3,4,{8}5h[8:1],{16}8,5h[8:1],,8h[4:1],5,6,{8}7,{16}1,2,
3x/E2f,B1,B8,B7,{8}3`E7,{16}E5,E6,3`E7,E8,E1,E2,{4}4`E3,
{16}6x/E8,B8,B1,B2,{8}6`E3,{16}E5,E4,6`E3,E2,{8}E1,{16}5/8x,1x,2x,3x,
8/4b,7,6,5,{8}4h[8:1],{16}1,4h[8:1],,1,4,1,5,2,6,3,
8/4b,7,6,5,{8}4h[8:1],{16}1,4h[8:1],,1h[4:1],4,3,{8}2,{16}8,7,
{8}6b/1b,{16}7/8,7/8,,1/2,{8}1/2,7b/4b,{16}6/5,6/5,,4/3,4/3,{32}2,1,
{16}8bx-4[16:1],,,6bx-2[16:1],,,{8}5x,3x,1,{16}8/3,7,6,5,
1/4b,2/5,3/6,4/7,{8}8/5h[8:1],{16}8,5h[8:1],,8,5,7,4,6,3,5,
1/4b,2/5,3/6,4/7,{8}8/5h[8:1],{16}8,5h[8:1],,8h[4:1],5,6,{8}7,{16}1,2,
3h[8:1]/E2f,B1,B8,B7,{8}3h[8:1]`E7,{16}E5,E6,3h[8:1]`E7,E8,E1,E2,{4}4h[8:1]`E3,
{16}6h[8:1]/E8,B8,B1,B2,{8}6h[8:1]`E3,{16}E5,E4,6h[8:1]`E3,E2,{8}E1,{16}5/8x,1x,2x,3x,
8/4b,7/3,6/2,5/1,{8}8/4h[8:1],{16}8,4h[8:1],,8,4,1,5,2,6,3,
8/4b,7/3,6/2,5/1,{8}8/4h[8:1],{16}8,4h[8:1],,8,4,1,{32}5,6,7,8,1,2,3,4,
{8}5b,{16}8/7,8/7,,6/5,{8}6/5,8b/3b,{16}1/2,1/2,,3/4,3/4,{32}5,6,
{16}7bx-3b[16:1],,,7bx/1bx-5b[16:1],,,{8}1bx,4x,7x/6x,{16}8,1,2,3,
{4}4/Cf,1/8-4[8:1],{8}8/2-6[8:1],3,{4}2/6,
{16}7,7,5,5,{8}1<6[8:1],3,1-5[8:1],4,{4}1/5,
3b/7b,8/1-5[8:1],{8}1/7-3[8:1],6,{4}7/3,
{16}2,2,4,4,{8}8>3[8:1],6,8,5,{16},7/1,{32},,,,1x-5[8:1],
8x/2x,7x/3x,6x/4x,,,,,{4}1b`Cf,{8}4-8[8:1],8-2[16:1],{4}4/6,
{16}5,5,6/2,7/3,{8}8/4-7[8:1],3,2-6[8:1],1,{4}2,
8bV64[8:1],{32}E1,E2,E3,E4,,,,,{4}1bV35[8:1],{32}E1,E8,E7,E6,,,,,{16}8-4[16:1],
,,3x-1[16:1],,,{8}5x-7[16:1],{16},8x>5[8:1],,,{4}8,
1b/Cf,{16}5/3,6,7,8,{8}1/5-1[8:1],1x-3v8[16:3],{4}5,
{8}6,7,{16}1,2,8,3,{8}7,4/6,{16},5/3,,,{4}5b/4b,
{16}7,1,8,2,{8}1-5[8:1],5-7[8:1],{16}1x/4x,3x,2x,1x,
{8}8x,{16}8,7,{8}1,{16}1,6,{8}2,5/8,{16},4/1,,Ch[16:3],
,,,,{4}8b/2b,{16}6,8,6,8,7,1,7,1,
{4}8x/3x,{16}3,1,3,1,2,8,2,8,{32}7,6,5,4,3,2,1,8,
{4}3b-8[8:1]/7bv4[8:1],3/7,2bv5[8:1]/5bv8[8:1],5/2,
{16}7b-3b[16:1],,,7x/2b-6b[16:1],,,{8}2x/4b-8b[16:1],{16},4x/7b>4b[16:3],,,{4}7x,
{1}Cf/E2/B2/B3/E4/E8/B7/B6/E6,
E
&inote_7=(160){4},,,,{1}8h[2:3]/1<1[4:5],
{8},,,,,2/7,{16},6/3,,,{1}1h[2:3]/8>8[4:5],
{8},,,,,2/7,{16},6/3,{32},,,,E5,
B5/B4,B6/B3,E7/E3,,,,,{4}7xh[4:5]/2x<2[1:1],{8},,,,,,,,,3/6,
{16},7/2,,,{4}8<5[16:3],
4,4>1[16:3],8,
{16}8-6[0.2812##0.1875],,,8-5[0.2812##0.1875],,,{8}8-4[0.2812##0.1875],{16},8>6[0.2812##0.375],,,,,,,{1}Cf,
{8},,,,,7/8,{16},1/2,,,{1}5h[2:3]/4<4[4:5],
{8},,,,,7/8,{16},1/2,,,{4}Cf/B5/B4,
1pp4[2:1],{16}E5,B5,B6,E7,E1,B8,B7,E7,
{4}5xpp8[2:1],{16}E5,B4,B3,E3,E1,B1,B2,E3,{32}E5,B4,B3,E3,E5,B5,B6,E7,
{16}1xh[8:1]/8xh[8:1],,,2h[8:1]/7h[8:1],,,{8}3/6,{16}5h[8:1]/4h[8:1],,,3h[8:1]/6h[8:1],,,{8}2/7,
,,,,,,,,{4}8bx/2-5[8:1]*>5[8:1],
8,{8}7,6,{4}5h[8:1],
{16}3,4,,6,{8}5,2/7,8-5[8:1]/1-4[8:1],7x/2x,{4}8x/1x,
1bx/7-4[8:1]*<4[8:1],1,{8}2,3,{4}4h[8:1],
{16}6,5,,3,{8}4,7/2,1-4[8:1]/8-5[8:1],7x/2x,{4}1x/8x,
E6/B5/B4/E4,8b/1b,{8}7,6,{4}5h[8:1],
{16}3,4,,6,{8}5,2/7,8-5[8:1]/1-4[8:1],7x/2x,{4}8x/1x,
6<1[16:3],2,2>5[16:3],6,
{16}6-8[0.2812##0.1875],,,6-1[0.2812##0.1875],,,{8}6-2[0.2812##0.1875],{16},6>8[0.2812##0.375],,,,,,,{4}Cf,
8/1,{8}7/8,6/1,{4}7/8,
{16}2,1,,6,{8}5,2/7,8-5[8:1]/1-4[8:1],6x/3x,{4}8x/1x,
Cf,1/8,{8}2/1,3/8,{4}2/1,
{16}7,8,,3,{8}4,7/2,1-4[8:1]/8-5[8:1],6x/3x,{16}1x/8x,,,Cf,
,,,,{4}1bh[8:1],{16}8,1,7,2,6,3,5,4,
{4}8bh[8:1],{16}1,8,2,7,3,6,4,5,{32}4x,3x,2x,1x,8x,7x,6x,5x,
{2}4x>1[16:3],8<5[16:3],
{16}3-1[0.2812##0.1875],,,3-8[0.2812##0.1875],,,{8}3-7[0.2812##0.1875],{16},3<1[0.2812##0.375],,,,,,,{4}Cf,
{16}2,1,,1,{4}8h[8:1],{16}7,8,,8,
{4}5h[8:1],{16}6,5,,5,{4}4h[8:1],{16}3,4,,4,
{4}1h[8:1],{16}8,1,7,2,6,3,5,4,{4}5h[8:1],
{16}1,8,2,7,3,6,4,5,{8}2-5[8:1],7-4[8:1],,,{2}1w5b[8:1],
{16}3,7,3,7,2,8,2,8,
{4}1bh[8:1],{16}8,1,7,2,6,3,5,4,{32}5x,6x,7x,8x,1x,2x,3x,4x,
{2}5x<8[16:3],1>4[16:3],
{16}6-8[0.2812##0.1875],,,6-1[0.2812##0.1875],,,{8}6-2[0.2812##0.1875],{16},6>8[0.2812##0.375],,,,,,,{1}Cf,
{4},,,,6h[4:7],
7,8,1,
2,3,4,5,
{8}4>8[2:3],,,7h[4:1],,,{4}6h[1:1],
,,,,3h[4:7],
2,1,8,
7,6,5,4,
{8}5pp1[2:3],4,,4,,4,,4,
,3,,3,,3,,3,
3h[8:15],2h[8:1],,1h[8:1],,8h[8:1],,7h[8:1],
,6h[8:1],,5h[8:1],,4h[8:1],,,3qq7[2:3],
4,,4,,4,,4,
,5,,5,,5,,5,
6h[8:15],7h[8:1],,8h[8:1],,1h[8:1],,2h[8:1],
,3h[8:1],,4h[8:1],,5h[8:1],{16},,,,4/7,
,,8/3,,,{8}1/2,{16}8/3,,,4/7,,,{8}5/6,
{16}2h[8:1]/1h[8:1],,,7h[8:1]/8h[8:1],,,{8}5/4,{16}7h[8:1]/8h[8:1],,,2h[8:1]/1h[8:1],,,{8}4/3,
{16}5/2,,,1/6,,,{8}8/7,{16}1/6,,,5/2,,,{8}4/3,
{16}7h[8:1]/8h[8:1],,,2h[8:1]/1h[8:1],,,{8}4/5,1/2,{16}2,1,3,8,4,7,
5,6,5,6,5,7,5,8,5,8,4,8,3,8,2,8,
{4}1bh[8:1],{16}8,1,7,2,6,3,5,4,{32}5x,6x,7x,8x,1x,2x,3x,4x,
{16}5x,,,1/8,,,{8}3/6,{16}4/5,,,6/7,,,{8}3/2,
{1}1bpp4[2:1]/8bqq5[2:1],
{16}1,2,3,5,{8}3,{16}5,4,,6,5,6,5,4,3,2,
1,2,3,5,{8}3,{16}5,4,,6,5,6,1,2,3,4,
5h[8:7]/B4f,E4,B3,B2,{8}E2,{16}B8,B7,,B1,B2,B3,{4}B4,
{16}8h[8:7]/B1,E2,B2,B3,{8}E4,{16}B5,B6,,B4,B3,B2,B1,B4,B3,B2,
8,7,6,4,{8}6,{16}4,5,,3,4,3,4,5,6,7,
8,7,6,4,{8}6,{16}4,5,,3,4,3,8,7,6,5,
{8}4,{16}3/6,6/3,,7/2,{8}2/7,8b/1b,{16}2/7,7/2,,6/3,{8}3/6,
{16}1-5[0.2812##0.2812],,,8-4[0.2812##0.2812],,,{8}2-6<2[0.2812##0.6562],{16},,,,,,,,8,
7,6,4,{8}6,{16}4,5,,3,4,3,4,5,6,7,
8,7,6,4,{8}6,{16}4,5,,3,4,3,8,7,6,5,
4/B5f,E6,B6,B7,{8}4/E8,{16}B1,B2,4,B8,B7,B6,{4}4/B5,
{16}1/B8,E8,B7,B6,{8}1/E6,{16}B4,B3,1,B5,B6,B7,1/B8,B5,B6,B7,
1,2,3,5,{8}3,{16}5,4,,6,5,6,5,4,3,2,
1,2,3,5,{8}3,{16}5,4,,6,5,6,1,2,3,4,
{8}5,{16}6/3,3/6,,2/7,{8}7/2,1b/8b,{16}7/2,2/7,,3/6,{8}6/3,
{16}8-4[0.2812##0.1875],,,1-5[0.2812##0.1875],,,{8}7-3>7[0.2812##0.6562],,,,,{4}Cf,
8b/1b,{8}2/1,3/8,{4}2/1,
{16}6,6,5,4,{8}3,7/2,1-4[8:1]/8-5[8:1],5x/4x,{4}8/1,
Cf,1b/8b,{8}7/8,6/1,{4}7/8,
{16}3,3,4,5,{8}6,2/7,8-5[8:1]/1-4[8:1],4/5,{4}1/8,
Cf,8b/1b,{8}2/1,3/8,{4}2/1,
{16}6,6,5,4,{8}3,7/2,1-4[8:1]/8-5[8:1],4/5,{4}8/1,
Cf/B6/B5/B4/B3,8b/1b,Cf/B7/B8/B1/B2,5b/4b,
{16}1-3[0.2812##0.1875],,,1-4[0.2812##0.1875],,,{8}1-5[0.2812##0.1875],{16},1<3[0.2812##0.375],,,,,,,{4}Cf,
{8}3h[8:1],{16}5,6,{4}7h[8:1]/4>2[8:1],6h[8:1],
4h[8:1]/8h[8:1],{16}4,8,2,8,{8}3,7/1,{16},5/3,,,{4}Cf,
{8}6h[8:1],{16}4,3,{4}2h[8:1]/5<7[8:1],3h[8:1],
5h[8:1]/1h[8:1],{16}5,6,7,8,{8}1,2/8,{16},4/6,,,{4}C,
1b/2b,{16}5,6,4,7,3,8,2,1,
{4}5bh[8:1],{16}6,5,7,4,8,3,1,2,{32}1x,8x,7x,6x,5x,4x,3x,2x,
{2}1x<6[16:3],5>2[16:3],
{16}8-6[0.2812##0.1875],,,8-5[0.2812##0.1875],,,{8}8-4[0.2812##0.1875],{16},8>6[0.2812##0.375],,,,,,,{1}Cf/E2/B2/B3/E4/E8/B7/B6/E6,
E
