&title= Drivi'n greedy -Nhato Remix-
&artist=葉月ゆら
&first=0
&des=火焰猫磷的主人
&freemsg=
&wholebpm=173
&des_1=
&des_2=
&des_3=
&des_4=
&des_5=火焰猫磷的主人
&clock_count=4
&lv_5=13+
&inote_1=
&inote_2=
&inote_3=
&inote_4=
&inote_5=(173)
{1},,
{8}3,5,4,6,3,5h[4:1],,4-2[8:1],,7-4[8:1],,1,,1,25,,
{8}6,4,5,3,6,4h[4:1],,5-7[8:1],,2-5[8:1],,8/2x,,8,74,,
{8}3,5,4,6,3,5h[4:1],,{16}4-8[8:1],,4,,7-4[8:1],,{8},1,,1,25,,
{8}46,3,2,71,6,5,42,1,8,1/7h[4:1],,8,16,,2-5[8:1]/5,,2x/6h[16:6],,
{8},5,6h[4:1],,4,,3qq8[2:1]/5,
,,5,B4,,,,3h[16:6]/7,,,4,3h[4:1],,5,,4/6pp1[2:1],,,4,B5,,,,
{8}2/6h[16:6],,,5,6h[4:1],,4,5,4h[16:6],,,{16}5,5,{8}4p1[2:1]x,,6,,7h[16:6],,,8,7h[4:1],,1,,16,,,C/E7/E3,,,,,
{8}35,4,5,3,4-7[8:1]/6,,34,,82,{16}2,1,2,,8,,3^6[8:1],,,,,,,,
{8}17,8,1,7,2/8-3[8:1],,78,,46,{16}6,5,6,,4,,7^2[8:1],,,,,,,,
{8}3,4,5,6,4-8[8:1]/6,,3,2,1h[4:1]x,,,{16}8,8,1,,,,
{8}2^5[4:1]/7,,5^8[4:1],,8^3[4:1],,3,,6,,
{16}3x,4,3,4,2,,18,,6x,5,6,5,7,,,,
{8}8-6-1[4:1]/1-3-8[4:1],,,,,,3,5,4h[4:1],,6h[4:1],,3,3,5,,5pp5[2:1],,,,3qq3[2:1],,,,7<7[2:1],,,,,,4,3,2h[4:1]/1h[4:1],,,,
{8}8-3[8:1],,2-5[8:1],,4-7[8:1],,8-3[8:1],,6-1[8:1],,2-5[8:1],,6b^3-6-8-3-1-6[16:24]b,,{4}E1,E2,E3,E4,E5,E6,C,
{8}4v5-7[16:5]/5v4-2[16:5],,,,,,6,4,5h[4:1],,3h[4:1],,6,6,4,,
4qq4[2:1],,,,6pp6[2:1],,,,2>2[2:1],,,,,,5,6,7h[4:1]/8h[4:1],,,,1-6[64:8]/6,,,,7-4[64:8]/4-8[64:8],,,,1-5[8:1]/5-1[8:1],,,,37,3,24,3,45,6,45,3,4s8[64:34]/5qq8[16:8],,,,,,,
{16},,{8}2b>6[4:1]/6b,,,7,1,,28,,25,{16}3,4,3,,3,,4-8[8:1]*-7[8:1]/2,,,,4x,,,,{16}6h[16:6]/1,,,3,,,4,,5/6h[16:6],,,4,,,3,,{16}47,,6,5,6,,45,,3,4,2,4,3,,,,
{8}7^5[8:1]/1,,3,,4p8[8:1]/8,,6,,5<4[2:1]/1,,3,,4x,,5^2[4:1],,2^7[4:1],,7^4[4:1],,4,,1,,1/7,8,8,8/2,1,1,8/1w5[8:1],,1b,,3/7-4[8:1],,7/4-8[8:1],3,2,,2^5[8:1]/6,,2/8,{16}6,6,5,,47,,5-2[8:1]/6,,,,{16}5/7,,,8,,,1,,4/8p4[8:1],,,3,,,2,,15,,{16}2,4,2,,34,,5,4,6,4,5,,,,
{8}3/7-5[8:1],,74,4h[4:1]x,,6-4[8:1],3,6,2-5[8:1],,26,6h[4:1]x,,4-8[8:1],7,4,6p2[8:1],,6/1,1h[4:1]x,,3-5[8:1],2,3,1^6[8:1],,15,5h[4:1]x,,4,5,3,6-2[8:1],,6/4^1[8:1],,4/8-5[8:1]*-3[8:1],,8,,47,36,2b/5h[16:6]b,,,2-5[8:1],5s1[16:14]*<4[16:24]b,2x,,,,,,,,,,,,,8b-4[8:1],,,,27,,34,2,18,7-3[8:1],,4-1[8:1]/7,,4/5p4[4:1],,5/2,,3,35,,
{32}8xq4[8:1]/1x,7,6,5,,,,,{8}78,6,53,2-8[8:1],,2/7-3[8:1],,4q5[4:1]/7,,46,,6,46,5h[8:1]x,3h[8:1]x,{32}4x,5x,6x,7x,8x,1x,2x,3x,4x,,,,{8}2h[8:1]x,5h[8:1]x,3h[8:1]x,4p8[8:1]x,,4/7p3[8:1],,7/1>6[4:1],,4,7,,{32}8-4[8:1],7,6,5,4,3,2,1,8,,,,,,,,{8}12,12,34,34,65,78,52,B1,B7,E3,E5,C,{32}1bx/8bx,27,36,45,,,,,{8}2-4[8:1],7-1[8:1],2,7,5-2[8:1],6,5/7^4[8:1],8,71,2,35,4,56,,{32}1x-6[8:1]/8x,2,3,4,,,,,{8}3-1[8:1]/1,4,3,8,4-7[8:1]/7,3,2^5[8:1]/4,1,28,7,64,5,34,,{32}8x,7x,6x,,2x,3x,4x,,7x,6x,5x,,{16}4h[32:1]x,4h[32:1]x,4h[32:1]x,,{8}3h[16:1]x/5h[16:1]x,2h[16:1]x/6h[16:1]x,
{8}7-3[8:1]/1^3[8:1],,1-5[8:1]/7^5[8:1],,17,,84,26,,{32}1p5[8:1]*v4[8:1],2,3,4,5,6,7,8,1,,,,,,,,{8}78,78,12,12,34,56,1V35[32:5]/8V64[32:5],2/7,,,{12}5x,5x,5x,{8}4-8[2:1]/6,,E6,,E6,,E6,,E6/1-3[8:1],,E6,,E6/2-8[8:1],,E6,,5-1[2:1]/1,,3,,3,,3,,3/8qq6[8:1],,3,,3/7pp1[8:1],,3,,4z8[2:1]/8,,7,,7,,7,,7/1-5[8:1],,7,,7/4-8[8:1],,7,,71,6,5,42,1,8,17,2,34,1,54,2,5-2[8:1]/6-1[8:1],,56,,3-1-4^5-2^3[16:20]/8-5-7[16:20],
