&title=ultradiaxon-N3
&artist=nitro
&first=0.02
&des=Ai
&lv_5=14
&inote_5=(150)
{1},
{2}4>1[8:3],5<8[8:3],
{2}4>5[2:1],5,
{16}3,4,,4,3,,3/4,,5h[8:1],,4,,3h[8:1],,4,,
{16}6,5,,5,6,,5/6,,4h[8:1],,5,,6h[8:1],,5,,
{16}3,4,,4,3,,3/5,,6,5,,5,6,,4/6,,
{16}3,4,,4,3,,2/5,,1-5[8:1],,,,1/5,,,,
{16}3,4,,4,2,,5h[8:1],,4-1[8:1],,3,,5,,6,,
{16}6,5,,5,7,,4h[8:1],,5-8[8:1],,6,,4,,3,,
{16}3,4,,4,2,,3/5,,6,5,,5,7,,4/6,,
{16}5s1[8:3],,,,,,,,3h[8:1],,,,2,1,2,,
{16}3,4,,4,3,,2/5,,3/4,,2,,5,4,5,,
{16}6,5,,5,6,,4/7,,5/6,,7,,4,5,4,5,
{16}3,4,,4,3,,2/5,,3/4,,2,,5,4,5,,
{16}6,5,,5,6,,4/7,,5/6-3[8:1],,7,,3/6,,,,
{16}3,4,,1/5,,,,,6,5,,4/8,,,,,
{16}2,4,,6/8,,,,,7,5,,1/3,,,,,
{48}3/4,,,2,,,,,,5/6,,,7,,,,,,2/4,,,1,,,,,,5/7,,,8,,,,,,1s5[2:1],,2,,3,,7,,6,,5,,
{2}1,7-3[8:1],
{48}2,,1,,2,,1,,2,,1,,3,,8,,3,,8,,3,,8,,4b>7[4:1]/7b,,,,,,,,,,,,,,,,,,,,,,,,
{16}5-8[8:1],,6,,2/5b,,,,5-8[8:1],6,4,,2/5b,,,,
{16}5-8[8:1],,4,,2/5b,,,,5-8[8:1],6,4,,2/5b,,,,
{16}5-8[8:1],,4,,2/5b,,,,5-8[8:1],6,4,,2/5b,,,,
{16}5-8[8:1],,4,,2/5b,,,,5,6,4,4,1b,1b,1b,,
{16}1-4[8:1],,8,,1b/6,,,,1-4[8:1],2,8,,1b/6,,,,
{16}1-4[8:1],,8,,1b/6,,,,1-4[8:1],2,8,,1b/6,,,,
{16}1-4[8:1],,8,,1b/6,,,,1-4[8:1],2,8,,1b/6,,,,
{16}2b-6[8:1]/8b-4[8:1],2b/8b,2b/8b,,,,,,8p6[4:1],,,,,,,,
{16}2,,,,3,4,2,4,3h[8:1],,5,,6,5,7,5,
{16}6,4,6,4,5,3,5,3,4>5[4:1],,4,,,,,,
{8}3>8[8:1],4,5,6>3[8:1],7,8,1,2,
{8}1>4[8:1],8,7,6<1[8:1],5,4,3-6[8:1],2,
{16}1/3b,,,,7,8,7,8,1-4[8:1]/6-3[8:1],,3/4-8[8:1],,1/6,,,,
{16}6-1[8:1],,5,,3-7[8:1],,4,4,8-4[8:1],,1,,8b,,,,
{24}2/5,,2/5,,3/6,,4/7h[6:1],,,,1,8,2-5[8:1],,3,,4,,6-1[8:1],,7,,8,,
{12}2,2,2,4,4,4,6,6,6,8pp3[8:3]*qq5[8:3],8,8,
{16},,,,,,,,1b,,,,7-3[8:1],8,6,1,
{16}7b,,,,2-6[8:1],1,3,8,2b,,,,8>6[8:3],1,7,2,
{16},,,,,,,,8b,,,,6-1[8:1],5,7,4,
{16}6b,,,,3-8[8:1],4,2,5,3b,,,,6h[64:1]/7pp3[8:3],,6h[64:1]/7h[64:1],,
{20},,,,,,,,,,8b,,,,,1/5-1[8:1],2,3,4,5,
{20}7b,,,,,4-8[8:1]/8,7,6,5,4,2b,,,,,1s5[8:3],2,3,4,5,
{20},,,,,,,,,,1b,,,,,2<6[8:1],3,4,5,6,
{20}2b,,,,,1<5[8:1],2,3,4,5,1b,,,,,8,1,2,3,4,
{2}5v3[8:1]/1v7[8:1],8p6[4:1],
{1}2>7[1:3],
{1},
{1},
{8},,,,1>4[8:1]*<6[8:1],5h[48:1],1b,,
{16}6,5,,5,7,,4/6,,3/5,,2,,4/6,,7,,
{16}3,4,,4,2,,3/5,,4/6,,7,,3/5,,2,,
{16}6,5,,5,7,,4/6,,3,4,,4,2,,3/5,,
{16}4s8[8:3],,,,,,,,6h[8:1],,,,7,8,7,,
{16}3-1[8:1],4,,4,3/5,,6,,7,5,6,4,5,3,4,,
{16}6-8[8:1],5,,5,4/6,,3,,2,4,3,5,4,6,5,,
{16}3-1[8:1],4,,4,3/5,,6,,6-8[8:1],5,,5,4/6,,3,,
{16}2,1,,7,8,,1/8,,2w6[8:1],,1/3,,,,,,
{16}6/5,7,,7/4,,,,,4/3,2,,5/2,,,,,
{16}7/5,8,,3/8,,,,,4/2,1,,1/6,,,,,
{48}6/5,,,7,,,,,,4/3,,,2,,,,,,6/5,,,8/5,,,,,,4/3,,,4/1,,,,,,8z4[2:1],,7,,6,,2,,3,,4,,
{2}8,2-6[8:1],
{48}7,,8,,7,,8,,7,,8,,6,,1,,6,,1,,6,,1,,2b/5b<2[4:1],,,,,,,,,,,,,,,,,,,,,,,,
{8}4-1[8:1],4,4,6h[16:1],6-4[8:1],5,1-7[8:1],2-6[8:1],
{16}1-5[8:1],,2-4[8:1],,1<3[4:1],,2,,1,,2b,2b,2b,,,,
{8}8-2[8:1],7,5-7[8:1],4,2b-4[8:1],1,7b-1[8:1],6,
{8}4-8[8:1],3-7[8:1],4,3,8qq6[8:1]*v2[8:1],1/7,,,
{8}3-5[8:1],5,3-7[8:1],7,3-1[8:1],1,3<1[2:1],5,
{24}3,,,,,,,,,5,,,5,,,3,4,2,3b,,,,,,
{8}1-7[8:1],2,4-2[8:1],5,7b-5[8:1],8,2b-8[8:1],3,
{120}4h[4:1],,,,,,,,,,,,,,,,,,,,,,,,,,,,,,3,,,,,,,,,,3,,,,,,,,,,3,,,,,,,,,,5h[16:1],,,,,,,,,,,,,,,5h[16:1],,,,,,,,,,,,,,,7,,,,,,8,,,,,,1,,,,,,2,,,,,,3,,,,,,
{8}6h[8:1],5,6h[8:1],7,6h[8:1],5,3qq8[2:1]/6-4[8:1],2/7,
{8}3b/6b,,,6V47[4:1],,,1b,,
{16}2,4,2,4,3,5,3,5,4-1[8:1]*-7[8:1],,2/6,,4b,,,,
{8}8<3[8:3],5,2,1pp5[8:3],1,,7,,
{16}8,,4/6,,3-8[8:1],5,3,5,3,,7h[8:1],,1,8h[8:1],,,
{16}4,7,3,6,2,5,1,4,8v3[8:1]*s4[8:1],,2/6,,8b,,,,
{24}2/5,,2/5,,3/6,,4/7h[6:1],,,,1,8,2bv5[8:1],,3b,,4b,,6bv1[8:1],,7b,,8b,,
{4}3<5[8:1],,4w8[8:1],4,
{16}1,6,5,6,1,5,4,5,1,6,5,6,1,4,3,4,
{16}1,5,2,5,3,5,4,5,6,5,7,5,8,5,1,1,
{16}8,3,4,3,8,4,5,4,8,3,4,3,8,5,6,5,
{16}8,4,7,4,6,4,5,4,3,4,2,4,1,4,8,8,
{16}2,6,5,6,8,4,3,4,1,5,4,5,8,4,3,4,
{16}8,7,8,7,4,5,4,5,2,1,2,1,5,6,5,6,
{16}1,5,4,5,2,6,5,6,1,5,4,5,8,4,3,4,
{16}2,1,3,8,4,5,3,6,8,7,1,6,2>8[8:3],,,,
{20}5q1[8:1],,,,,,,,,,1b,,,,,2q6[8:1],5,3,5,3,
{20}6b,,,,,7p3[8:1],4,6,4,6,3b,,,,,1pp6[8:3],4,2,4,2,
{40},,,,,,,,,,,,,,,,,,,,8b,,,,,8b,,,,,7-3[8:1],,4,,6,,4,,6,,
{40}2b,,,,,2b,,,,,1v6[8:1],,5,,2,,5,,2,,7b,,,,,7b,,,,,8,,5,,7,,5,,7,,
{20}4h[10:1],,6h[10:1],,2h[10:1],,8h[10:1],,1,,7b,,,,,1-5[8:1],7,2,8,3,
{20}1b,,,,,8-4[8:1],6,1,7,2,8b,,,,,7s3[8:3],5,8,6,1,
{60},,,,,,,,,,,,,,,,,,,,,,,,,,,,,,1b,,,,,2b,,,,,3b,,,,,6,,,4,,,6,,,4,,,6,,,
{60}8b,,,,,1b,,,,,2b,,,,,5,,,3,,,5,,,3,,,5,,,7b,,,,,8b,,,,,1b,,,,,4,,,2,,,4,,,2,,,4,,,
{2}1,5,
{1}4bw8[1:1],
{1},
{1},
E
