&title=日常と地球の額縁
&artist=wowaka
&first=0.01
&des=老吴
&lv_5=13
&inote_5=(150){1},
{2}3h[4:3],,4h[4:3],,5h[1:1],6h[1:1],,,
{4}3h[2:1]/4h[2:1],,,34,4h[2:1]/5h[2:1],,,45,{8}5h[4:1],6h[4:1],,,3h[4:1],7h[4:1],,,
{16}1,8,1,8,1,8,1,8,1,8,1,8,1b,,,,
{8}24,3,46,{16}7,8,7,8,7,,15,,2,,
{8}75,6,53,{16}2,1,2,1,2,,48,,7,,
{8}25,1,28,{16}7,8,6,8,7,,15,,6,,
{8}53,2,18,{16}2,1,3,1,2,,48,,,,
{16}2,1,2,1,2,,8,1,,7p2[8:1],8,,6h[8:1]/7,,,,
{16}7,8,7,8,7,,1,8,,2q8[8:1],1,,3h[8:1]/2,,,,
{16}2,1,2,1,2,,8,1,,7,8,,6,5,6,,
{16}1b,4,3,4,3,4,8b,6,5,6,5,6,4b/7b,,,,
{8}2>5[8:1],,6-3[8:1],6,,1,1-6[8:1],,
{8}7<4[8:1],,3,3q8[8:1],,7,7-2[8:1],,
{8}1q5[8:1],,8,8-3[8:1],,4,4v7[8:1],,
{8}5,6,8pp4[8:3],,7,7,6,6,
{8}7<4[8:1],,3-6[8:1],3,,8,8-3[8:1],,
{8}2>5[8:1],,6,6p1[8:1],,2,2,18,
{16}2-5[8:1],1,2,,8,,7-4[8:1],8,7,,1,,3,5,2,6,
{16}3,7,3,7,2,8,1v6[8:1],1,,8p4[8:1]*v3[8:1],8,,,,,,
{16}2,1,2,1,2h[8:1],,4,3h[8:1],,5-7[16:1],4h[8:1],,,,,,
{16}7,8,7,8,7h[8:1],,5,6h[8:1],,4-2[16:1],5h[8:1],,,,,,
{16}2,1,2,1,2h[8:1],,4,3h[8:1],,5,4,,56,,67,,
{16}8,7,8,7,4,5,4,5,2>5[8:1],1,2<7[8:1],1,,,,,
{16}5,6,5,7,5,,4,8,,3-5[16:1]*-6[16:1],1,,3,,,,
{16}7,8,7,1,7,,6,2,,5-3[16:1]*-2[16:1],3,,5,,,,
{16}3-8[8:1],4,3,,5,,6-1[8:1],5,6,,4,,2,8,3,7,
{16}2,6,2,6,3,7,3,7,4w8[8:1],,,4,4,,,,
{8}1>3[8:1],,6,8<6[8:1],,3,1>3[8:1],,
{8}1/6,7,8,8<6[8:1],,3,1-5[8:1],,
{8}1/5-7[8:1],,4,4-2[8:1],,7,5-7[8:1],,
{8}2/5,3,4,4-8[8:1],,48,6,{16}1,2,
{16}37,,4,,56,,7,8,7,8,7,,1,,8
,7,
{16}26,,5,,34,,2,1,2,,8,8,8-4[8:1],8,8,8,
{8}8bV24[1:1]*V64[1:1],,,,,,,,
{8},,,,,,8h[8:1],,
{16}1b-5[8:1],2,7-4[8:1],,1,,7,,3<6[8:1]*q8[16:3],,,,3b,,,,
{16}7<4[8:1],8,6,1,7,,2h[8:1],,{24}1b-5[8:1],8,7,6,5,4,1b,,,6,,,
{16}3-8[8:1],4,2,4,3,,5,,6-1[8:1],5,7,5,6,,4h[4:1],,
{8},2h[8:1],8h[8:1],6h[8:1],3h[8:3],,,,
{16}8b-4[8:1],7,2-5[8:1],,8,,2,,4-1[8:1]*-7[8:1],,,,4b,,,,
{16}8-4[8:1],1,7,1,8,,2,,{24}1-5[8:1],8,7,6,5,4,1b,,,3,,,
{16}2-5[8:1],,2,,8-5[8:1],,8,,4-8[8:1],,4,,6,,7<3[4:1],,
{8},,1>6[4:1],,6v8[16:3]*p1[16:3],,,,
{16}2b-5[8:1],3,8-4[8:1],,2,,8,,{24}3<6[8:1],2,1,8,7,6,3b,,,7,,,
{16}8-4[8:1],7,1,6,8,,7,,{24}8p3[8:1],1
,2,3,4,5,8b,,,,,,
{8}8-6[8:1]/1,1,8-5[8:1]/2,2,8-4[8:1]/3,3,84,3,
{8}2-4[8:1]/5,5,2-6[8:1]/6,6,2-8[8:1]/7,7,28,7,
{16}7b/8b,,2,1b/2b,,46,4b/6b,,1-5[8:1]/8-4[8:1],27,36,,1b/8b,,,,
{8}3v8[8:1]/6v1[8:1],,,,18,78,{16}1b>7[4:1],2,3h[4:1]/8,,
{16},,,,1b>7[4:1],2,3h[4:1]/8,,,,,,1b>7[8:5]*>7[8:5],2,3h[8:5]/8,,
{16},,,,,,,,,,,,1,8,1,8,
{16}2b/7b,,3,,4,,6,5,6,5,6,,78,,1,,
{16}24,,3,,4,5,3,{24}2b,1,8,7-3[8:1],6,5,4,3,2,1/7b,,,{16},
{24}8,1,2,6,5,4,2,3,4,1,8,7,1,2,3,8,7,6,2,3,4,7,6,5,
{24}3,4,3,5,4,5,3,2,1,7b/8-4[8:1],,,,,,1,,,1,,,,,,
{8}2pp5[8:3]/5,,6pp1[8:3],6,,,4-8[8:1],,
{16}6-1[8:1]/4,,,,2-5[16:1]/6,,,8-4[16:1]/2,,,38,,2-6[8:1],,,,
{16}5-8[16:1]/2,,,5-2[16:1],,,7-3[16:1]/5,,,1-6[16:1]/7,,,14,,5,,
{16}4,5,4,5,3,6,3,6,2,7,2,7,1-5[8:1],8,1,8,
{4}1b,,,,
{4}3h[1:1],,,,
{4}4h[1:1],,,,
{4}5w1[2:1],,,,
{4}6h[1:1],,,,
{4}5h[1:1],,,,
{4}4h[1:1],,,,
{4}3p5[2:1],,,,
{8}4h[16:1],4h[16:1],5h[16:1],5h[16:1],4h[16:1],4h[16:1],5h[16:1],5h[16:1],
{8}3h[16:1],3h[16:1],6h[16:1],6h[16:1],3h[16:1],3h[16:1],6h[16:1],6h[16:1],
{8}2h[16:1],2h[16:1],7h[16:1],7h[16:1],2h[16:1],2h[16:1],7h[16:1],7h[16:1],
{8}1h[16:1],1h[16:1],8h[16:1],8h[16:1],1h[16:1],1h[16:1],8h[16:1],8h[16:1],
{8}1h[16:1]/8h[16:1],1h[16:1],1h[16:1],1h[16:1],8h[16:1]/1h[16:1],8h[16:1],8h[16:1],8h[16:1],
{8}1h[16:1]/8h[16:1],1h[16:1],8h[16:1]/1h[16:1],8h[16:1],1h[16:1]/8h[16:1],1h[16:1]/8h[16:1],1h[16:1]/8h[16:1],1h[16:1]/8h[16:1],
{1}2b/7b,
{16}3h[16:3],,,4h[16:3],,,5h[8:1],,7h[16:3],,,4h[16:3],,,2h[8:1],,
{1}1h[8:7],
{16}2b-6[8:1],3,8-4[8:1],7,2,,8,,5<8[8:1]*v2[16:3],,,,5b,,,,
{16}8-4[8:1],1,7,2,8,,3h[8:1],,{24}2b-6[8:1],1,8,7,6,5,2b/4,,,,,,
{16}4-8[8:1],5,3,5,4,,6,,7-4[8:1],8,6,8,7,,1h[4:1],,
{8},3h[8:1],5h[8:1],7h[8:1],2h[4:1],,,{16}1,1,
{16}8b-4[8:1],7,2-6[8:1],3,8,,2,,5-2[8:1]*-8[8:1],,,,5b,,,,
{16}2-5[8:1],1,3,1,2,,7h[8:1],,{24}5-1[8:1],6,7,8,1,2,5b/3h[8:1],,,,,,
{16}8-4[8:1],1,7,1,8,,2,,3-7[8:1],4,2,4,3,,6<2[4:1],,
{8},5,5>8[4:1],,8v6[16:3]*q5[16:3],,,,
{16}3b-8[8:1],2,7-4[8:1],6,3,,7,,{24}8q4[8:1],7,6,5,4,3,8b/2,,,1,,,
{16}2-6[8:1],1,3,8,2,,7h[8:1],,{24}8p3[8:1],1,2,3,4,5,6/8b,,,,,,
{8}1-7[8:1]/2,2,1-6[8:1]/3,3,1-5[8:1]/4,4,15,4,
{8}3-5[8:1]/6,6,3-7[8:1]/7,7,3-1[8:1]/8,8,31,8,
{16}7b/1b,,3,2b/4b,,56,4b/7b,,2-6[8:1]/8-4[8:1],37,46,,2b/8b,,,,
{8}3q1[8:1]/6p8[8:1],,63,,81,21,{16}8b<2[4:1],7,6h[4:1]/1,,
{16},,,,8b<2[4:1],7,6h[4:1]/1,,,,,,8b<2[8:5]*<2[8:5],7b,6h[8:5]/1b,,
{16},,,,,,,,,,,,1,8,1,8,
{16}3,4,2,7,5,6,3,4,2<7[8:1],2,7<4[8:1],7,2b,,,,
{16}7,2,4,3,6,5,7,8,6<1[8:1],6,1>4[8:1],1,6b,,,,
{16}1,5,3,8,4,6,3,4,2,7,8,6,1p5[8:1]/5p1[8:1],,37,,
{4}1b>4[8:1]/5b<8[8:1],1bp5[8:1]/5bp1[8:1],1b>4[8:1]/5b<8[8:1],1b/5b,
{16}7,8,6,3,1,2,7,8,6>3[8:1],6,3>8[8:1],3,6b,,,,
{16}3,6,8,7,2,1,3,4,2>5[8:1],2,5<8[8:1],5,2b,,,,
{16}5,1,7,4,8,2,7,8,6,3,4,2,5>2[8:1],,6,,
{4}5<8[8:1]/7,5-1[8:1]/3,5w1[8:1]/7,5b,
{16}3,4,2,6,5,7,2,4,{24}8-4[8:1],7,6,5,4,3,8b/2b,,,,,,
{16}2,1,3,7,8,6,3,1,{24}5-1[8:1],6,7,8,1,2,5b/3b,,,4,,,
{16}8,6,7,1,3,2,8,4,6,1,5,3,8,1,8,1,
{24}7,6,5,2,3,4,1,2,3,8,7,6,4,5,6,4,3,2,6,7,8,3,2,1,
{16}5b/8b,,6,7b/4b,,21,8b/3b,,{32}2-7[8:1]/6-3[8:1],3,4,5,6,7,8,1,2b/6b,,,,,,,,
{4}1-4[8:1]/5-8[8:1],1b/5b,{8}37,26,{16}1b>5[16:3]/5b,26,3h[4:1]/7,,
{16},,,,2b>6[16:3]/6b,37,4h[4:1]/8,,,,,,3b<2[4:3]*<2[4:3]/7,48,5h[8:7]/1,,
{1},
{8}1!-4[42.8571#28:1],,,,,1!-4[8:1]*-4[8:1],,1b,,,,,,,,,,,,,,,,,,E
