&title=Partenza
&artist=Y-SHIN
&first=0
&des=Arrivo
&lv_5=13+
&inote_5=(110)
{1},
{16}2>6[4:1],,,,,,8,,,,,,
{16}7<3[4:1],,,,,,1,,,,,,
{16}2>6[4:1],,,,,,8,,,,,,
{16}37,,,,{24}5,4,6,{16}5b,,,,,,
{16}7qq8[3:1],,,,,,1,,,,,,
{16}2pp1[3:1],,,,,,8,,,,,,
{16}2h[4:1]/7h[4:1],,,,,,27,,{32}1,8,1,8,1b,,,,
{16}2/6h[16:3],,,4,6,5,7,8,6-1[12:1],1,5,2,
{16}6,,,2,8,1,4,3,5,4,6,5,
{16}7/3h[16:3],,,5,3,4,2,1,3-8[12:1],8,4,7,
{16}3,,,7,1,8,5,6,4,5,3,4,
{16}3/7h[16:3],,,1,7,8,6,5,7^4[12:1],4,8,3,
{16}7,,,3,5,4,1,2,8,1,7,8,
{16}6/2h[16:3],,,8,2,1,3,4,2^5[12:1],5,1^6[12:1],6,
{16}2b-6[12:1],,1b,,2b,,8b,,17,17,17,17,
{16}2b/6b,,,,3,,4h[4:1]/2,,,,5,,
{16}34,,,45,,,56,,5s1[4:1],,4,,
{16}3,,,,2,,1h[4:1]/3,,,,8,,
{16}17,,,26,,,35,,2,2,8,,
{16}7b/3b,,,,6,,5h[4:1]/7,,,,4,,
{16}65,,,45,,,34,,4z8[4:1],,5,,
{16}6,,,,7,,8h[4:1]/6,,,,1,,
{16}27,,,36,,,45,,3,3,7,7,
{16}1bq4[3:1]*p6[3:1],,,,,,,,,,,,
{16}3b^6[8:1],,,3h[16:3]/4,,,,,3pp3[4:1],,2,,
{16}1,,,,8,,8h[4:1],,,,1,,
{16}7^2[8:1],,,7h[16:3]/8,,,,,28,,37,,
{16}4bq5[3:1]/6b,,,,,,{32}8,,,8,,,8b,,,,,,
{16}6^3[8:1],,,6h[16:3]/5,,,,,6qq6[4:1],,7,,
{16}8,,,2,2b,,3,5,4,7,7b,,
{16}6,4,5,1,1b,,2,3,4,5,6,7,
{16}1b/8b,,,24,,3,2/4-1[12:1],,65,,47,,
{16}8,,,24,,3,2/4^1[12:1],,65,,47,,
{16}8,,,24,,7,7h[8:1],,6h[8:1],,5h[8:1],,
{16}3h[8:1],,2h[8:1],,1h[8:1],,{24}7,6,5,{16}4/8-4[12:1],,26,,
{16}8b/1b,,,75,,6,7/5-8[12:1],,34,,52,,
{16}1,,,75,,6,7/5^8[12:1],,34,,52,,
{16}1b,,,75,,2,2b,5,3,4,1,,
{16}2b/8b,,7,4,6,5,{24}8,2,7,{16}3^6[12:1],,12,,
{16}3b>6[2:1]/7b,,,,,,,,,,,,
{16}5h[8:3],,,,,,4,,6^3[12:1],5,7,5,
{16}6b<3[2:1],,,,,,,,,,,,
{16}4h[8:3],,,,,,5,,{24}3,4,3,6,5,6,
{16}2b/7h[8:1],,{32}1,8,7,6,5,4,3,2,{16}17,,26,,35,,
{24}2,1,2,{16}8-4[12:1],,57,,38,,2,,1,,
{16}7b/2h[8:1],,{32}8,1,2,3,4,5,6,7,{16}82,,73,,64,,
{24}7,8,7,{16}1-4[12:1]*-6[12:1],,3-7[12:1]/7-3[12:1],,1b,,,,,,
{16}2h[16:3],8h[16:2],,,,,7h[16:3],3h[16:2],,,,,
{16}4h[16:3],6h[16:2],,,,,37,2,8,1,1,1,
{16}1b>5[16:3],,,2/5qq5[4:1],,6,6,,7,,8,,
{16}1h[8:1],,{24}5-8[12:1],1,4,{16}8,,35,,2,2,6,6,
{16}8>4[16:3],,,3/4qq5[3:1],,6,6,,7,,8,,
{16}1,,28,28,{24}4-7[12:1],5,3,{16}4b-1[12:1],,,,,,
{16}8<4[16:3],,,7/4pp4[4:1],,3,3,,2,,1,,
{16}8h[8:1],,{24}4-1[12:1],8,5,{16}1,,64,,7,7,3,3,
{16}1<5[16:3],,,6/5pp4[3:1],,3,3,,2,,1,,
{16}8,8,8,17,26,35,{24}2,1,3,7,8,6,4,5,3,
{16}2b-6[12:1]/6b,,7,7,2,7,7b-1[16:1],,3,3,7,3,
{16}3b-5[16:1],,1,1,3,1,1b,,{32}2,8,2,8,{16}2b,,
{16}3>7[16:3],,,7pp2[3:1]/4,,6,6,,5,,4,,
{16}3,,24,24,{24}1-5[12:1],7,8,{16}7b-3[12:1],,,,,,
{16}2>6[16:3],,,1/6qq6[4:1],,7,7,,8,,1,,
{16}1h[8:1],,{24}4-1[12:1],1,3,{16}8,,46,,8,8,2,2,
{16}6b<2[16:3],,,2qq7[3:1]/5,,3,3b,,,,5,,
{16}5^2[12:1],,5^8[12:1],,5-1[12:1],,5,,5,7,7,7,
{16}2b/6b,,,7,5,6,3,3,4,6,5,5,
{16}7,6,4,2,3,3,{32}7,5,6,4,{16}5,2,4,3,
{16}2h[16:3]/8,,,7,5,6,3,3,1,7,2,2,
{16}6,4,1,2,7,7,{32}1,6,2,5,{16}3,8,6,2,
{16}7b/3b,,,2,4,3,6,6,5,3,4,4,
{16}2,3,5,7,6,6,{32}2,4,3,5,{16}4,7,5,6,
{16}7h[16:3]/1,,,2,4,3,6,6,8,2,7,7,
{16}3b^1[16:1],4,6b^8[16:1],5,3b,,6b,,{48}2,3,4,5,6,7,{16}18,,
{16}2bq5[4:5]/7b,,,,,,,,,,,,
{16},,,,,,,,,,,,
{16},,,,,,,,,,,,
{16},,,,,,,,,,,,
E
