&title=ストックホルムワルツ
&artist=イマニシ feat.yuki
&first=0
&des=冰山清辉
&lv_5=12+
&inote_5=(130){1},
{16}35,,,,4,,,5h[4:1]/6,,,,7,5,,6,,
{16},,25,,3,4,,25,,,3,,4,,{24}6,5,6,
{16}5h[4:1],,,,6,,,4h[4:1]/3,,,,2,4,,3,,
{16}45,,,4,5,4,,56,,7,7,,1,1,1,1,
{16}1b,,2,4,3,4,,25,,36,,4,7,5,6h[8:1],,
{16}3,,5,2,4,3h[16:3],,1,1v7[8:1],,4-6[8:1],,,,,,
{16}8,,7,5,6,5,,74,,63,,5,2,4,3h[8:1],,
{16}6,,4,7,5,6h[16:3],,8,8v2[8:1],,5,,6-8[8:1],,,,
{16}1bv7[8:1],,,,3-1[8:1],,,,8v2[8:1],,,,6-8[8:1],,,,
{16}1v7[8:1],,,,3-1[8:1],,,,8v2[8:1],,7,,6,6,,6h[16:5],
{16},,1,,3h[8:3],,8,,8,,,,5,5h[16:7],,2,
{16},,2,,4h[8:3],,7,,7,,,,6,5,6,4b,
{16}5v3[8:1],,,,7-5[8:1],,,,4v6[8:1],,,,2-4[8:1],,,,
{16}5v3[8:1],,,,7-5[8:1],,,,4v6[8:1],,3,,2,2,,1,
{16}5,,3v1[8:1]/6,,7v5[8:1]/4,,,,,,,,1h[4:3]/6,,,,
{16}4h[8:1],,,,7h[16:1],,,,3-6[8:1],,,,3/8,,,,
{16}8,,7,5,6,5,,74,,63,,5,2,4,3h[8:1],,
{16}6,,4,7,5,6h[16:3],,8,8v3[8:1],,5,,6-1[8:1],,,,
{16}6/2v7[8:1],,,,4-1[8:1],,,,4/8v3[8:1],,,,6-1[8:1],,,,
{16}6/2v7[8:1],,,,4-1[8:1],,,,4/8v3[8:1],,7,,6,6,,6h[16:5],
{16},,8,,5h[8:2],,8,,8,,75,,4,4h[16:7],,1,
{16},,1,,3h[4:1],,1,,1,,24,,4-2[8:1]*-6[8:1],,,,
{16}4v7[8:1],,,,2-5[8:1],,,,2/6v3[8:1],,,,8-5[8:1],,,,
{16}8/4v7[8:1],,,,2-5[8:1],,,,2/6v3[8:1],,7,,8,8,,7,
{16},64,,5,3,,2h[4:1],,1-4[8:1],,8,,1/7V53[4:1],,,,
{16}3V17[4:1],,,,7V53[4:1],,,,3V17[4:1],,,,7,,,,
{16}3b,,6,5,,78,,3,4,,2,1-5[8:1],,8,8,1,
{16}7-3[8:1],,6,5,7,,1,,2,4,3h[8:1],,7,4,6,5,
{16}8b-4[8:1],,12,,8,3,,2,4,,7,5-1[8:1],,4,6,5,
{16}7-4[8:1],,8,,7/3-7[8:1],,,5,3v4[8:1]*v5[8:1],,6,,,,,,
{16}1b^4[8:1]/7,,,8,1,,7,,6/5<8[8:1],,,4,5,,3,,
{16}2/1^4[8:1],,,8,1,,7^4[8:1]*p1[16:4],,4^1[8:1],,7,,,,,,
{16}8^5[8:1]/2,,,,8/4q8[8:1],,,3,4qq5[4:1],,3,,7,,8,,
{16}1^6[8:1],,,,4-1[8:1],,3,,5/4-7[8:1],,7-3[8:1],,8,,8,,
{16}8b^5[8:1],,,1,8b,,2,,3/4>1[8:1],,,5,4,,6,,
{16}7/8^5[8:1],,,1,8^3[8:1],,4p8[8:1],,8v6[8:1],,,,,,,,
{16}7^2[8:1]/2,,,,7/3p7[8:1],,,,3/6-2[8:1],,,,4-1[8:1]*-7[8:1],,,,
{16}4,,,,2b^5[8:1],,7^5[8:1],,5bpp7[8:1]*p1[8:1],,,,,,,,
{16}8,,7,5,6,5,,74,,63,,5,2-5[8:1],4,3,,
{16}6,,7,7,5,6h[4:1],,8,8v2[8:1],,5,,8/6,,7,,
{16}1,1,1h[1024:1],1,1h[1024:1],1,1,1h[1024:1],1,1,1h[1024:1],1,1,1h[1024:1],1b,,
{16}3,,5,2,4,3h[4:1],,1,1v6[8:1],,2,,1/3,,4,,
{16}6h[8:1]/5b,,4,5,3,4,2,8,1,1,3b/7h[8:1],,5,6,3,4,
{16}2,8,1,1,8h[8:1]/2b,,5,7b,3,5,1b,,,7b/3b,,,
(67.78)
{12}1b/5b<3[4:3],,,,,{48},,,4pp1[48:25],{12},,,,{24},,{12},
{12},,,,{48},,3^6[12:1],5,4,,4,,,,4h[1024:1],,,,7h[24:5],,,,,,,,,,1,,,,2/5,,,,
{12}4^7[12:1]/3,,2/5,4/3,1,1/8,{8}2-6[12:1],3/8h[8:1],{12},8,74,
{12}5^2[12:1]/6,,47,5/6,8,81,{24}3/4-8[12:1],,2,6,3,5,,,,,{12}1^3[12:1]/5,
{12}3/4^7[12:1],,5/1pp4[12:4],4pp7[12:3],,,,,,,,8^6[12:1]/4,
{12}6/5^2[12:1],,4/8qq5[12:4],5qq2[12:3],,,,,,,,1^3[12:1]/6,
{12}3/4^7[12:1],,6/1v4[12:1],4V28[12:2]*V68[12:2],,,,,,1/7p3[12:1],,6,
{16}2^5[12:1],,1,,2/6h[8:1],,7,,
(134)
{32}7b/1,2,3,4,5,6,7,8,6b/1,2,3,4,5,6,7,8,5b/1,2,3,4,5,6,7,8,4b/1h[4:1],,,,,,,,
(132)
{16}8,,7,5,6,5,,74,,3,4,,1/2-6[8:1],,8,,
{16}6/2,,7,7,5,6h[8:1],,4,5,3,4-1[8:1],,3/5,,4,,
{16}7,,2,1,3,1,,7,8-3[8:1],6,8,5,8,,7,,
{16}4,4,5,5,6,6,7,7,8,8,1,1,2,2,3,3,
{16}4,4,4,4,4,4,3h[1024:1],4,4-1[8:1]*-7[8:1],5h[1024:1],4,4,4,,,,
{16}8b^5[8:1]/2,,,1,8,,2,,3/4>1[8:1],,,5,4,,6,,
{16}7/8^5[8:1],,,1,8p4[8:1],,2^4[8:1],,4v1[8:1]*^7[8:1],,,,,,,,
{16}1^4[8:1]/7,,,,1/5p1[8:1],,,6,5pp4[4:1],,6,,2,,1,,
{16}8^3[8:1],,,,8pp4[8:3]/7pp4[8:3],,6,,,,,,,,,,
{16}8b^5[8:1],,,1,8b,,2,,3/4>1[8:1],,,5,4-8[16:2],,6,,
{16}7^4[8:1]*p3[8:1],,,,7,,,,3^8[8:1],,8>4[32:5],,7,,6,,
{16}6^1[8:1],,,,4v1[8:1]/6^3[8:1],,,,4q8[8:1]/6,,,,4/1^4[8:1]*^6[8:1],,,,
{16}1,,,,2b^5[8:1],,7qq5[8:1],,5b^8[8:1]*q1[8:1],,,,,,,,
{16}1b^4[8:1]/7,,8,8,1,,7b,,6/5<8[8:1],,,4,5,,3,,
{16}2/1^4[8:1],,,8,1V73[4:1],,7V51[4:1]*-5[48:5],,1,,,,,,,,
{16}8-4[8:1],,,,8/4-7[8:1],,,3,4V25[4:1],,3,,7,,8,,
{16}1v6[8:1],,,,4-1[8:1],,3,,5-8[8:1]/4-7[8:1],,7-3[8:1],,,,,,
{16}1b^4[8:1],,,8,1b,,7,,6/5<8[8:1],,,4,5,,3,,
{16}2/1^4[8:1],,,8,1-5[8:1],,5-1[8:1]*V73[4:1],,1-3[8:1],,,,,,,,
{16}2-8[8:1],,,,2-5[8:1]/6-4[8:1],,,,2/6-1[8:1],,,,6-3[8:1]/1-4[8:1],,,,
{16}1/6,,,,3bpp5[8:1],,8^5[8:1],,5b>1[8:1]*p8[8:1],,,,,,,,
{16}18,,7,5,6,5,,74,,63,,5,2-6[8:1],4,3,,
{16}2/6,,7,7,5,6h[8:1],,5,6,3,4h[8:1],,2,2,1,1,
{16}38,,2,4,3,4,,25,,36,,4,7-3[8:1],5,6,,
{16}3/7,,2,2,4,3h[4:1],,1,1v6[8:1],,4,,1/3,,2,,
{16}71,,3,5,4,4,,35,,46,,4,7-4[8:1],5,6,,
{16}3,,2,2,4,3h[8:1],,5,4,6,5h[8:1],,7,7,6,6,
{16}8h[16:4]/5h[16:4],,,,,,,2h[16:6]/6h[16:7],,,,,,,,,
{16}3h[16:4]/4h[16:4],,,,,,,4h[16:5]/6h[16:7],,,,,,,,,
