&title=ラ-4-無敵級ビリーバー
&artist=中須かすみ DECO*27
&first=0
&des=中须霞单推人
&lv_5=14
&inote_5=(140)
{1},
{16},,,,,,,,E2,E6,E4,E8,Cf,,,,
{16}7b,,3,4,2b,,6,5,8b,,,1b/7b,,,3b-5v4-6[8:3]*-5v4-6[8:3]/5b,,
{8},,,,7h[8:1],8h[8:1],1h[8:1],2h[8:1],
{16}8xb-6[8:1],,,,3,,2,,1>5[4:1],,,,6,,7,,
{16}8<4[4:1],,,,3,,2,,1-5[8:1],,1,,7-3[8:1],,7,,
{16}4xb-2[8:1],,,,5,,6,,7<4[16:3],,,,8,,1,,
{16}2>5[16:3],,,,1,,8,,7xqq8[8:3],,8,,1x,,2x,,
{16}3xhb[8:3],,,,,,1,2,1h[8:1],,3,4,3h[8:1],,5,4,
{16}6,,8,,35,,2,1,,7,8<5[8:1],,2,,1-3-8-4[8:3],,
{16}2b,,,,,,,,7>2[8:1],,,,3,,3bh[4:1],,
{16},,4,3,6,2,8h[8:1],,5,7,1h[8:1],,6,4,8pp4[8:9],,
{8}7b,,6,,6,,6,,
{8}7,,7,,7h[8:3],E4,D3,B2,
{8}D2,8,8qq5[8:7],,1,,1,,
{8}2,,2,,3,3h[8:3],E6/B5,,
{8}B8/E8f,4,3,4h[2:1],,5,6,7h[2:1],,
{8}8,1,2,2h[8:3],E6,D7,B7,
{8}D8,3,2,1h[2:1],,8,7,6h[2:1],,
{8}5,4,3,{16}1,8,1,,27,,18,,
{8}3b/4b,,34,,34,2,12,12,,12,3,24,24,,24,5h[8:1],
{8}6h[8:1],7h[8:1],8,7,5p4[8:3],6,7,8h[8:1],,7,7-3[8:1],5,5-1[8:1],,8,,
{8}78,,78,,78,6,56,56,,56,7,68,68,,68,1h[8:1],
{8}4b,2,4<8[8:3],3,2,1,2,3xhb[4:1],,{16}4,,18,,2,7,3,6,4,5,3,7,1h[8:1],,
{8}8b-6[8:1],2,8-2[8:1],3,8-6[8:1],4,8-2[8:1],{16}3,3,
{8}8-6[8:1],4,8,{16}2,2,8,1,6,3,7,2,5,4,
{4}3b/6b-2-4[16:3],,1b-5-7[16:3],,
{16}8b-4-2[16:3],,,2,,,1,,8b,,7,,4,6,2,,
{16}1b/8b,,3,4,3,,6,5,6,,3,4,2,,1b/8b,,
{16},,2,4,3,,7,5,6,,3,4,2,8,1,,
{16}1hb[4:1]/8b,,,,6,,35,,46,,24,,57,,1b-5[8:1]/2b-4[8:1],,
{8},2bV84[16:3]/1b,,8b/2b,6hb[4:1],3,2,{24}1x,2x,3x,
{16}4xb-8[8:1]/B8/B7/E8f,,,,4/6x-2[8:1],,5,,1-5-3-8[8:3]/6,,3,,18,,7v4[8:1],,
{8},7V15[16:3],1,37,2xh[4:1],E7/B7,E7/B7,2,
{8}1-5[8:1]/8-6[8:1],,1-3[8:1]/8-4[8:1],,1qq8>4[2:1]/8,,1,5b,
{8},6b[8:1],,7hb[8:1],{16}5,7,4,6,3,5,2,4,
{8}1b-5[8:1],8,1/7,6,{16}3,3,4,4,2h[8:1],,1,8,
{8}7,56,{16}3,4,2,1,{24}4x,3x,2x,1x,8x,7x,Cf,,,,,,
{8}2x-5[8:1],3,2/7-1[8:1],6,4-8[8:1]/7,3,45,7b,
{8},2b/5b,8,3b/6b,1b-5[8:1]/8b,,1x<5p3[2:1],,
{8}1b/3h[4:1],,,2,2,8b,1b,{16}6,5,
{8}47,25,1-4[8:1]/8,{16}2,7,1b/8qq5[8:3],,,,3/8b,,1,,
{8}2-8[12:1],3,2/7-3[8:1],{16}6,5,7-5[12:1],,4-1[8:1],,7,,4b<7[8:1],,,,
{8}4b>1[8:1]/2,,4b/6,,{16}7,8,5,4,1,2,
{8}8b,57,1b,24,{16}3,5,1,8,4,6,7b-3[8:1],,
{8},7/8-3[8:1],1b,{16}5x-2v4[4:1]/8,6x,7xb-5[12:1],,8x,,7b,,,,
{8}27,27,27,2-8[8:1]/7-4[8:1],,2bv5[8:1]/7b,,2b/6-1[8:1],
{8},46,2b,35,8b,{16}4,6,1bpp4[2:1],,,,
{8}5b,5,5,5,5,6xpp1[2:1],,4b/6b,
{8},2,2,2,1-5[8:1]/8-4[8:1],27,18,,
{8}3h[8:3],4,5,6,6h[8:3],5,4,2hb[4:1],
{16},,4,3,5,4,6h[8:1],,8b,,45,,2b/7b,,,,
{8}46,6,35,3,46,6,35,3,
{8}57,7,24,2,57,7,24,2,
{8}68,7,13,2,68,7,13,2xh[8:1],
{8}5,7,13,2xh[8:1],5,7,1bw5[8:1],,
{8}1b,,45,56,24,57,13,68,
{8}2b/7b,2b/7b,2bqq5b[16:5]/7bpp4b[16:5],,,,,,
{24}6hb[8:1]/8b,,,1x,2x,3x,4xhb[8:1]/8b,,,2x,3x,4x,5xhb[8:1]/1b,,,3x,4x,5x,6x/7h[8:1],,,{16}8,1,
{16}2,4,3,8,5,7,1,6,{24}2x,3x,4x,5x,6x,7x,2x,3x,4x,5x,6x,7x,
{16}4b/8xb-4[8:1],,3,2,18,,1-5[8:1],2,3,,8-4[8:1],7,6,,3,2,
{16}1h[8:1],,3,2,8,1,6,5,7,4,5,2,8<2[4:1],8,1,7,
{16}8b,,,,6xh[4:1],,,,{24}1x,8x,7x,6x,5x,4x,1x,8x,7x,6x,5x,4x,
{24}3,5,2,6,1,7,8hb[4:1],,,,,,{16}7,8,6,5,1,2,4,3,
{16}5,5,6,8,2,2,1,4,7,5,4,2,6,5,4,3,
{24}8x,7x,6x,1x,2x,3x,7x,6x,5x,2x,3x,4x,{16}5x/6,6,8xb,,24,2,1xb,,
{8}3xhb[4:7]/7xb,,5,,6,6,,8,,8,,6,,7,8,,
{8}8xh[8:9]/1,,3,,2,2,,3x,,2x,,1x/6,2,7,1,8,
{8}2b/E6,2,2/E7,2,2/E8,2,2/E1,2,
{8}8/A4,8,8/A3,8,8/A2,8,8-4[4:3]/A1,8,
{16},,,,,,,,,,,,3,5,1b-5b[8:1],,
{8},7b>2b[8:1]/1b,,7b,{32}A4,B4,B2,E3,A3,E4,C,B1,D2f,,,,{24}8x,7x,6x,
{8}5xb-1[8:1],,3-6[8:1]/5,2,8<5[8:1]/3,7,1-5[8:1]/8,2,
{8}6-2[8:1]/1,7,4-1[8:1]/6,3,47,B6/E6/B5,B6/E6/B5,{24}1x,2x,3x,
{8}4xbp8[8:1]/8bp4[8:1],,4<7[8:1]/8>3[8:1],,4/8qq5>2b[2:1],,8,3b,
{8},2b,,1hb[8:1],{16}3,2,5,4,7,6,8,1,
{16}7bV51[16:3],,46,,73,,2,,3,8,1,6,5h[8:1],,7,7,
{16}8,,18,,2,5,3,4,{24}5x,6x,7x,8x,1x,2x,Cf,,,,,,
{8}2x-5[8:1],1,2/6-8[8:1],7,4-8[8:1]/6,3,4,5hb[4:1],
{16},,2,4,3b,,7,5,6,6,8,,3,3,1,,2bV48[4:1]/7bV51[4:1],,,,,,,,,,27,,1b/8b,,3,4,
{8}2b/5b,4b/7b,1b/8b,{16}2,7,1b,1,8,8,3,3,6,6,
{8}4bpp4[16:5]*qq4[16:5],,,,,7xb,1b,8,
{8}3b/6b,4b/5b,2b>3qq5b[8:3]/7b<6pp4b[8:3],4b/5b,,,,,
{1}Cf/E8/E7/E5/B6/B5/B4/B3/E3/E2,,E
