&title=ウルトラリズム(feat. Hylen)
&artist=DEN-ON-BU, Hylen, 桜乃美々兎 (CV: 小坂井祐莉絵)、水上 雛 (CV: 大森日雅)、犬吠埼紫杏 (CV: 長谷川玲奈)
&first=0.39
&des=CeNx
&lv_5=14?
&inote_5=(145){16}B6,,B7,,C,,E1,E8,E7,E6,E5,,C,
,,,1x,,1x,,4x,,1x,2x,3x,4x,5x,,2xh[64:1]/3x,,,,A7/E7,,,E1/B8,,,B5/B6,,,A8/E8,,,Ch[64:1]/B6/B7,,,,{48}1x,2x,3x,,,,,,,2x,3x,4x,,,,,,,3x,4x,5x,,,,,,,4x,5x,6x,,,,,,,2x/3x,,,,,,,,,,,,{16}
A6,E6,,E7,B6,,B7,C,,D8,B8,,C,,,,4x,3x,,3x,2x,,2x,1x,,1x,8x,,2x/3hx[64:1],,,,E1,,E7,,E5,,A8,,A7,,A6,,A5,,,,1x,,3x,,5x,,2x,,4x,,6x,,8x-4[8:1],,,,2h[8:1],,,,3,4,3,4,1,,2,,3>8[8:1],,4,,5h[8:1],,,,7,8,7,8,5,,4,,5-1[8:1],,3,,2h[8:1],,,,28,,1,2,3,,2,3,4,,3,4,5,,36,,5-8[8:1]/4,,53,,2<6[6:1]*v4[8:1],,2,,,,,,5xh[4:1],,,,4,6,3,7,2z6[4:1],1,2,1,,,,,4xh[4:1],,,,3,5,2,6,8pp4[4:1],7,8,7,,,,,6xh[4:1],,,,,,3,,12,,8,,12,,3,,4h[16:3],,,5h[16:3],,,6,,6-1[8:1],,,,,,,,34,,2,,3-1[8:1]/4,,5,,3x/4x,,,,8,,7,,56,,7,,5/6-1[8:1],,4,,{48}56,E7,B7,B8,E1,,,,,,,,{16}2x/3x,,,,1hx[8:1]/8hx[8:1],,,,7,8,7,8,6,1,5h[8:1],,3,4,3,4,1x,,1x,,7x,7x,7x,,6/4-1[8:1],,5,,{48},E4,B3,B2,E2,,,,,{16},8x,,8x,,4,5,4,5,1h[8:1],,3,1,4,1,5,1,6,1,7,1,8-4[8:1],,8,,{48}8,B8,C,B4,,,{16},,A2/D3/A6/D6,,,,1hx[8:1]/8hx[8:1],,,,1/7-3[8:1],,,,1-5[8:1]/7,,,,17,,,,{48}6x,B6,,,,,2x,B2,,,,,8x,B8,,,,,4x,B4,,,,,7x,B7,,,,,3x,B3,,,,,5x>5[1:1],B5,C,B1,,,,,,,,,{16},,,,,,,,,,,,,,,,E2,,E3,,E4,,A4,,A3,,A2,,A1,,,,C,,,,C,,,,C,,,,C,,,,E8/C,,E7,,E6/C,,A5,,A6/C,,A7,,A8/C,,,,3x/4x,,2,,2,,2,,1x/8x,,7,,7,,7,,6x/5x,,4,,4,,4,,2x/3x,,1,,1,,1,,87,,6,,12,,3,,
5,4,7,2,6>6[4:3],3,8,1,E5,,E4,,E3,,E2,,E1,,E8,,E7,,,,{16}5/3h[16:3],,,5,4,4,5,3,3,4,3,5,1x,,,,5/3h[16:3],,,5,4,3,5,4,3,5,4,3,1x,,,,
2h[16:3]/4,,,4,3,3,2,3,3,4,2,3,1x,,,,2h[16:3]/4,,,4,3,3,3,3,2,4,4,3,1b,,,,
4/6h[16:3],,,4,5,5,4,6,6,5,5,4,1x,,,,4/6h[16:3],,,4,5,6,5,6,5,4,5,6,1x,,,,7h[16:3]/5,,,5,6,6,7,6,6,5,6,6,1x,,,,7x/E2,7x,7x/B4,7x,7x/D1,7x,7x/A3,7x,7x/B2,7x,7x/D6,7x,7x/Ch[32:1],,,,2h[16:3]/5,,,5,3,4,3,5,4,5,2,4,1x,,,,2h[16:3]/5,,,5,4,3,4,3,2,3,2,3,1x,,,,1h[16:3]/4,,,4,2,1,3,2,4,3,4,3,1x,,,,1h[16:3]/4,,,3,3,3,3,1,2,2,4,3,1b,,,,4/7h[16:3],,,5,7,6,7,5,6,5,5,4,1x,,,,7h[16:3]/4,,
,5,6,6,7,7,6,5,{32}6,5,4,,{16}1x,,,,{48}4/5,6,7h[48:7],,,,{16},4,5,5,6,5,7,6,7,7,1x,,,,2x/E8,2x,2x/B5,2x,2x/D1,2x,2x/A6,2x,2x/B7,2x,2x/D4,2x,2xV84[4:3]*s6[2:2]/Ch[32:1],,,,,,,,,,,,,,,,,,,,B2/B3/E3,,,,B6/B7/E7,,,,4h[64:1]/5h[32:1],,,,5h[64:1]/4h[32:1],,,,2,1,,1,2V46[4:1],,,,A2/A6,,,,7,7,1,8,2,1,2,1,3-8[8:1],4,,4,3,,,,E8/E2/B2/B7/C/E5,,,,7,8,,8,7V53[4:1],,,,A7/A3,,,,1,,1,8,7,,8,7,6,,7,6,5v4[8:1],3,5,3,,,,,2,1,2,1,3h[8:1],,7,2,6,8,7,1-5[8:1],8,8,,,7,,7,6,5,4,3,2,1,,8,8,,,27,,1,,1,,{12}7,5,6,2,4,3,8,1,8,{16}1-6[8:1],2,3-6[8:1],,,,,,5x,5x,4x,4x,6/2-6[12:1]*-6[12:1],,,,{48}5xh[4:1],A2,B2,Cf,B6,A6,{16},,,,,,6,8,7,1,8,2,1,3,{12}7,5,6,8-3[8:1],1,2,{96}4x,E1,,B1,,B2,4x,E3,,,,,{16}4x,,5xs1[6:1]*s1[6:1],5x,5x,,,,,,3,4,3,4,2,1,2,7h[16:3],,8,8,,
6,5,6,5,B7,B8,B7,B8,{12}1,2,3,{16}4x/8-5[8:1],,4x-1[8:1]/8,,,,,,6,6,,6,3,8,2,7,1,6,8,5,3,6,2,7,1-6[8:1],8,,8,{48}1,E1,B8,B7,E7,,{16},,4x/5x,,,,2/8-4[8:1],,,,2-6[8:1]/8,,,,2/8-4[8:1],,,,28,,,,{48}3x,B3,,,,,7x,B7,,,,,1x,B1,,,,,5x,B5,,,,,2x,B2,,,,,6x,B6,,,,,4x<4[1:1],B4,C,B8,,,,,,,,,{16},,,,,,,,,,,,,,,,B1,,B2,,B3,,B4,,D4,,D3,,D2,,,,C,,,,C,,,,C,,,,C,,,,C/B8,,B7,,C/B6,,B5,,C/D6,,D7,,C/D8,,,,6x/5x,,7,,7,,7,,8x/1x,,2,,2,,2,,3x/4x,,5,,5,,5,,7x/6x,,8,,8,,8,,12,,3,,87,,6,,4,5,2,7,3<3[4:3],6,1,8,E5,,E6,,E7,,E8,,E1,,E2,,E3,,,,2h[16:3]/7,,,6,4,4,5,3,3,6,3,5,4,4,4,4,2,5,3,7,4,6,2,4,3,7,5,6,1x,,,,2h[16:3]/7,,,5,3,4,2,6,5,7,3,3,{32}7,6,5,,{16}2,4,3,3,5,6,6,4,2,2,5,7,7,4,1b,,,,2h[16:3]/7,,,6,4,5,6,3,4,5,2,3,{64}6x,5,4,3,,,,,,,,,3x,4,5,6,,,,,,,,,6x,5,4,3,,,,,,,,,3x,4,5,6,,,,,,,,,6x,5,4,3,,,,,,,,,3x,4,5,6,{16}1x,,,,2h[16:3]/7,,,5,4,4,6,3,3,7,2,2,6hx[8:1],,,6hx[8:1],E1,,E4/6hx[8:1],,A2,6hx[8:1],B8,,D5/6hx[8:1],,E1,6x,Ch[32:1],,,,7h[16:3]/2,,,4,6,6,3,5,5,4,7,5,5,5,5,5,6,4,4,4,4,4,4,4,5,5,3,3,1x,,,,7h[16:3]/2,,,3,6,5,7,3,4,2,{24}7x,6,2x,3,7x,6,2x,3,6x,5,3x,4,6x,5,3x,4,7x,6,2x,3,7x,6,2x,3,6x,5,4,1b,,,,,,{16}7h[16:3]/2,,,2,{32}3,4,5,,6,,6,,,,{48}2x,3,4,5,6,7,,,,,,,,,,,,2x,3,4,5,6,7,,,,,,,,,,,,2x,3,4,5,6,7,,,,,,,,,,,,2x,3,4,5,6,7,1x,,,,,,,,,,,,{16}7h[16:3]/2,,,{32}4,,7,6,5,,4,,7,6,5,,3,,8,7,6,,{48}2x,3x,4hx[48:6],,,,,,,3x,2xh[48:6],,E8,,,,,3x,E6/4xh[48:6],,,,,,E2,3x,2xh[48:6],,,,C,,,3x,4xh[48:6],,A7,,,,,3x,A5/2xh[48:6],,,,,,D1f,3xp2<4[2:3],,
,,,,,,,,,{8},,,,,,,,,,,,7xp6[2:1],{16},,,,,,,,,,,,,5xv3>7[1:1],,,,,,,,,,,,,,,,,,,,,,A1/A2/A3/A4/A5/A6/A7/A8/B1/B2/B3/B4/B5/B6/B7/B8/C/D1/D2/D3/D4/D5/D6/D7/D8/E1/E2/E3/E4/E5/E6/E7/E8,,,,,,,,,,,,,2v4[1:1]*<6[1:1],
