&title=Igallta
&artist=Se-U-Ra
&first=2.38
&des=unknown
&lv_5=14+
&inote_5=(230)
{24}4,5,3,6,2,7,8h[64:40]bx/1h[64:24]bx,,,
{16},,,
{48},
{24},,,,7,6,5,4,3,2,
{24}1x/8x,7,6,5x/4x,3,2,1x/8x,7,6,5x/4x,3,2,1,8x/7x,6,5,4x/3x,2,1,8x/7x,6,5,4x/3x,2,1,8,7x/6x,5,4,3x/2x,1,8,7x/6x,5,4,3x/2x,1,8,7,6x/5x,4,3,2x/1x,8,7,6x/5x,4,3,2x/1x,,,,,,
{8}7q1[2:1],,8,,
{24}B2,B3,B4,,,,
{8},,3h[32:24]/2,,,4,,,5,,
{8}5p3[2:1],,4,,
{24}B1,B8,B7,,,,
{8},,6h[32:24]/3,,,7,,,5,,
{8}8q1[2:1],,5,,
{24}B5,B6,B7,,,,
{8},,2h[32:24]/6,,,4,,,1,,
{24}1,8,7/2h[58:24],,,,,,,,,,8,7,6h[24:4],,,,8,1,2,3,,,1,2,3,4/5h[2:1],,,,,,,,,1,2,3,4,,,
{8},,5/3,,2/7,,6/1,6,6/1-5[8:1],,
{16}6/1,7,8,,8x^5[8:1]/4x,,,,8/4,3,2,1,8-3[8:1],,,,8/5,6,7,,1-6[8:1]/5x,,,,1/6,5,4,3,2-6[8:1]/5,,,,2/6,7,8,1,2,3,4/8,1,2,3,
{16}4,5,6,7,8,1,
{16}7,1,7,1,7,1,7,1,
{16}6,2,6,2,6,2,6,2,
{16}5,3,5,3,5,3,5,3,
{16}4,4,4,4,4,4,4,4,4
{1}Ch[32:48]f,
{2},
{48}E7/E3,B6,B3,B5,B4,,,,,,,,
{8},,
{16}2,3,4h[16:6],,,8,7,6,5,,,,
{16}6,5,6,5,
{8}7/4,8,1/3,2,1,8/6,
{16}7,6,5h[16:6],,,1,2,3,4,,,,
{8}5h[4:1]/2,3,4,7/2,1,8,7/2,8,
{16}1,2,3h[16:6],,,7,6,5,4,,,,
{16}6,5,7,,8/1,,
{8}2,3,7/4,8,1,
{16}8,7,6h[16:6],,,2,3,4,5,,,,
{16}5,4,3,2,1,5,6,7,
{24}8/E4,E3,E2,E1,E8,E7,E6,E5,B3,B1,B7,B5,Cf/8-4[8:24]b,,,,,,
{1},,,
{8},,,,,,
{1}6pp4^7[32:48]b/2pp8^3[32:48],,
{8}8^5[8:1],8,4^1[8:1],4,6-2[8:1],6,3-8[8:1],3,4-1[8:1]*-7[8:1],4,4,,6/2,,,,
{8}3/4,3,3/4-8[8:1],3,4/2-6[8:1],2,7^2[8:1],7,3^6[8:1],3,7,8w4[8:1],8,,,,
{8}7/6h[32:12],,,5h[32:12],,,
{8}6-1[8:1],1-7-4[4:1],6,2,2,2-6[8:1],2,8/2,,,
{8}E3,B3,B4,E5,,E1/B1/B8,E6/B6/B5,,E7,B7,B8,E1,,1,2,3,4h[4:1]/5,6,7,8h[4:1]/1,1,2,3,,5h[4:1]/4h[4:1],,,,
{8}2-6[8:1]/8-4[8:1],,2/8,,
{8}7xh[16:4]/5xh[16:4],,,6h[16:4]/4h[16:4],,,5h[16:4]/3h[16:4],,,4<1[32:12]/2,,,3b,,,,
{8}7-5[8:1]/2,8,7/2-4[8:1],1,7-5[8:1]/2,8,7/2-4[8:1],1,7/2-6[8:1],8,7/2-8[8:1],5,2/4b,,,,
{8}5h[4:1],4,4h[4:1],3,3h[4:1],2,2h[4:1],1,1h[4:1],8,8h[4:1],,7b-3[8:1],,,,
{8}4>5[32:48],,,,8z4[1:1]b,,,,Cf,,,,,,,,
{4}4q1[1:1],,E2,E3,E4,,6>2[1:1],,E2,E1,E8,E7,Ch[32:16],,,,
{1}6h[16:12]b/2h[16:12]b,
{8}1b-5[8:1]b,8b,1b,,
{8}7b,7b,
{8}7b/1b,7b/1b,7b/1b,7b/1b,7b/2b,7b/2b,7b/3b,7b/3b,6b/4b,6b/4b,5bw1[8:1]b/4b,,
{4},,,
{8}7q2[2:1],,3,,
{16}3,4,5,,6h[1:1],,,,2,,,,,,8,,,,,,5,,,,
{8}8p5[2:1],,4,,
{16}4,3,2,,1h[1:1],,,,3,,,,,,6,,,,,,8,,,,
{8}5p2[2:1],,1,,
{16}1,8,7,,6h[1:1],,,,4,,,,,,8,,,,,,5,,,,
{24}1,8,7/2h[58:24],,,,,,,,,,7,6,5h[24:4],,,,1,2,3,4,,,8,7,6,5/4h[2:1],,,,,,,,,8,1,2,3,,,,,,,,,
{8}5/4,5,4,5,
{24}5/E3,B3,B4,E5,,,
{8}4,,5h[4:1]/4,,4,,5,,4,,
{8}4h[4:1],,5,,
{24}4/E7,B6,B5,E5,,,
{8}5,,4,,4h[4:1],,5,,4/5,,
{8}6b/4b,6b/4b,6b/3b,6b/3b,7b/3b,7b/3b,7b/2b,7b/2b,8b/2b,8b/2b,8b/3b,8b/3b,8b/4b,8b/4b,8b/5b,8b/5b,8b/Cf,,
{4},,,5h[4:1]/4h[4:1],,5-1[8:1]/4-8[8:1],,
{8}3v8[8:1],8^2-5[4:1],3,7,6-1[8:1]b,7,3qq1>6[2:1],3,
{8},6,7,8,
{24},A7,A8,A1,A2,A3,
{8}4x/8x-4[8:1],,2-6[8:1]/8b,,7/2b,,
{16}8,1,
{8}8v3[8:1],3^1-6[4:1],8b/4,,
{16}5,4,3,2,8/1,7,6,5,4/2b,,,,,,
{8}8,7/5,8,7/5,8-4[8:1],7/5,8,1,
{16}2,3,4,5/6,7,8,1/3,4,
{8}5-1[8:1],5,7<4[8:1],7,
{8}2,2,
{16}2,4,2,4,2,5,2,5,2,6,2,6,2,6,3,7,4,8,5,1,
{24}6-3[8:1],2-7[8:1]b,6,2,6,2,6,2,,,,,
{8}Ch[2:1],,,,,,
{8},,
{24}7b/1b,6b,5/2,4,3b,,,,
{24}2b/8b,3b,4/7,5,6b,,,,,,
{2}1bw5[2:1]b/Cf,,
{8}2-5[8:1],5^3-8[4:1],2,6,7-4[8:1]b,6,
{8}1-4[8:1],8,1-5[8:1],7,1,6,
{8}7<4[8:1],8,7/1-5[8:1]b,2,
{16}8/1,,7,8,6,2,4,3,6,5,7,4,8-4[8:1]b,3,1/2,,8b,,,,
{8}6v1[8:1],1-7-4[4:1],6,2,3-8[8:1]b,2,
{8}6v3-5-8[2:1],7,6,
{8}1,1,2,3,
{24}8x,7,6,5/4,3,2,1/7,,,
{16}3,4,3,7,8,6,1,4,3,5,2,6,1h[4:1],,,,
{24}8,7,6,5,4,3,2,1,8,7,6,5,4,3,2,1,8,7,6,5,4,3,2,1,8/Cf,,,,,,
{8}6-4-2[4:1]/2,,2-4-6[4:1],,1,1b,,
{8}7/3,7h[16:8]/3h[16:8],,,,,,
{8}1v6[8:1],6-8-3[4:1],1,5,4^7[8:1]b,5,
{24}8x,1x,2x,3x,,,
{8}4-1[8:1],5,4-8[8:1],7,4-6[8:1]*-2[8:1],6,,,
{8}8x/7x,8/7,1/2,1/2,6/5,6/5,3/4,3/4,
{8}5-7[8:1],3-5[8:1],5,3,8-3[8:1],2-5[8:1],8,2x,
{8}7-3[8:1],8,7,
{24}2,1,8,7,6,5,4,3,2,
{8}1h[32:24]b,,
{64}B8,Cf,B4,,,,,,,,,,,,,,
{8},,4b,,,,
{24}8/1,7,6,5h[16:6],,,
{8},
{24}1,2,3,4,,,,,,
{8}7-4-7[4:1],8,1,2-5-2[4:1],1,8,7,6,
{24}1/8,2,3,4h[16:6],,,
{8},
{24}8,7,6,5,,,,,,
{16}3,4,3,4,
{8}5/2,1,8,7/4,8,1,
{24}7/8,6,5,4h[16:6],,,
{8},
{24}8,7,6,5,,,,,,
{16}3,4,2,,8/1,,
{8}5,6,7/1,2,3,
{24}2/1,3,4,5h[16:6],,,
{8},
{24}1,2,3,4,,,,,,
{16}6,5,7,4,
{8},1^4[8:1],8,7,6^1[8:1],6,
{24}2,3,4,5h[32:12],,,
{8},
{24}1,8,7,6,,,,,,
{24}8,7,6,5,1,8,7,6,5,2,1,8,7,6,5,4b/3b,,,
{24}8h[4:1]/1,2,3,4,5,6,7,,,1h[4:1]/8,7,6,5,4,3,2,,,8h[4:1]/7,6,5,4,3,2,1,,,1h[4:1]/2,3,4,5,6,7,8,,,
{32}1,,,5,,,1,,,
{64}5,,,,,1,,,,,5,,,,,1,,,,,
{16}5,1,5,1,5,1,5,1,
{48}5,,,1,,,5,,,1,,,5,,,1,,,5,,,1-5[8:1]b,,,
{96}5,,,,,1,,,,,5,,,,,1b,
