&title=秋のあなたの空遠く
&artist=lily white
&first=0
&des=luvlily
&lv_5=12+
&inote_1=
&inote_2=
&inote_3=
&inote_4=
&inote_5=(156){1},
{8}
18,27,18,36,27,36,27,45,
18,38,27,68,37,45,26,45,
28,17,38,27,46,25,37,45,
16,28,13,47,26,35,47,18,,
2<7[8:1]/6>3[8:1],,,,7q3[8:1]/3q7[8:1],,,,3qq1[8:1]/7qq5[8:1],,,,
1h[8:2]/5h[8:2],,,5h[8:5],,,3,,2,1>4[8:1],,1,6,6,7,7,8-5[8:1],,8,,
{16}3,4,3,,5,4,5,,2,4,2,,6,4,6,,
2pp4[8:1]/7qq5[8:1],36,45,,27,,,,26,,,37,,48,,,2h[8:2]/6h[8:2],,,,,,1w5[4:1]/5,,
,,,,,,,,1,8,1,8,1,7,1,8,1,6,1,7,2,8,1,,
{8}
1bq5[8:1],,7-4[8:1],7,2q6[8:1],,8-4[8:1],8,1v6[8:1],,
7p3[8:1],7,2q6[8:1],,8<5[8:1],8,3-8[8:1],
{16},4,3,,5q1[8:1],,
{8},5,3-5[8:1],2,3/6-2[8:1],,6/1-7[8:1],,1/5w1[8:1],,5,,
7<4[8:1],,2q6[8:1],2,8<5[8:1],,1q5[8:1],1,7p3[8:1],,
2>5[8:1],2,,7,7,8,8-5[8:1],,8,,17,1v4[8:1]/7v4[8:1],,1pp4[2:1]/7qq4[2:1],,
,,,,,,,4/5<8[8:1],3,25,1,8<5[8:1]/3,1,28,3,4>1[8:1]/7,5,46,8,8<5[8:1]/3,
1,28,4,3w7[4:1],,,,,4qq4[2:1]*pp4[2:1],4,4b,,,,,,
18,34,57,36,,,,
{12}
7/8h[12:2],,1h[12:2],,2h[12:2],,4-7[8:1]*-1[8:1],,,4,,,8h[6:1],,7h[6:1],,5h[6:1],,
{8}
6q2[8:1],,6,,,38,,2,1,3,8,1,3,2,8-6[8:1],4,8/5-1[8:1],,
5/2-4[8:1],,2/7-3[8:1],,7/5-2[8:1],,5/1-6[8:1],,1/8-3[8:1],,
8/7-4[8:1],,7/5-1[8:1],,5/2-4[8:1],,2/1-7[8:1],,1/6-2[8:1],,
63,,
{16}
8,1,8,1,8,2,8,2,8,3,8,3,7-5[8:1],,,,7/4-8[8:1],,,,
{4}
4/1-3[8:1],1/6-2[8:1],6/4-6[8:1],4/7-3[8:1],7/2-8[8:1],
2/6-1[8:1],6/5-2[8:1],5/4,,
{6}37,26,48,
{8}1h[8:2]/5h[8:2],,,2h[8:3]/6h[8:3],,,,,35,4w8[8:2],,4,,,,,
{16}2-7[8:1],,1,7,2,,5,,68,,17,,28,,13,,57,,26,,48,,37,,15,,
{8}8-4[8:1],7,6p2[8:1],5,8-4[8:1],7,6>3[8:1],5,
1-5[8:1],2,3q7[8:1],4,1-5[8:1],2,3,
{6}4-8[8:1],
{12}5,,
{8}6,7-3[8:1],,7/1p5[8:1],,1/2,2p6[8:1],,23,,,,
45,,,67,,
{16}1,8,1,,1,2,1,,1,7,1,,1,3,1,,35,26,17,,
8-4[8:1]*-4[8:1],,,,8,,,1>4[16:3],,,4<6[8:1],,6<4[8:3],,,,,,4bw8[1:1],
{4},,,,,
{12},
{8},18,26,37,45,67,18,23,45,57,68,17,28,13,24,35,46,
{1},
{4},
{8},5b-8[4:1]*-3[4:1],,,,,,,,,
{16},
{8}1b-4[4:1]*-4[4:1],,,,,,,,,,,5b-8[4:1]*-3[4:1],,,,,,,,,,,,,,,,,
{16},1bv4[4:1]/7bv4[4:1],,
{8},,,,,,68,7,61,7,26,7,63,8-2[8:1],64,3-7[8:1]/8,,3/6-4[8:1],6,6/1-5[8:1],,1/3-6[8:1],3,3/7-2[8:1],,7/8v5[8:1],,8/1v6[8:1],,1/2-8[8:1],,2/7-3[8:1],,7/4-6[8:1],,
4/2-8[8:1],,27,,
{16}4,5,4,5,4,6,4,6,4,7,4,7,4-2[8:1],,,,1-5[8:1]/4,,
{8},1/6-8[8:1],6,6/3-7[8:1],,3/8-2[8:1],8,8/4-6[8:1],,4/7-3[8:1],,
7/5-1[8:1],,5/2pp4[8:1]*qq8[8:1],,2,,,
{24},,67,,,,56,,,,,54,,,3b/4b>5[8:11],,,,,,,,,5b<4[1:1]*<4[1:1],
{1},
{4},,
{16},,7-3[8:1],,8,2,7,,4,,13,,28,,16,,58,,14,,25,,37,,15,,48,,
{8}1-5[8:1],2,3q7[8:1],4,1-5[8:1],2,3<6[8:1],4,
8-4[8:1],7,6p2[8:1],5,8-4[8:1],7,6,
{24}5-1[8:1],,,,4,,,,
{8}3,2-7[8:1]*-5[8:1],,2,,8,7q3[8:1]/8q4[8:1],,78,,,,
3h[8:2]/5h[8:2],,,4-8[8:1],,
{16}4-7[8:1],5,6,,4-1[8:1],3,2,,4-7[8:1],5,6,,4-1[8:1],3,2,,4-8[8:1],5,6,,
{8}4,,
{6}1-5[8:1],2,
{16},3q7[8:1],,4,,,,,,5w1[4:1],,,,,,,,,,1,8,1,8,1,7,1,8,1,6,
{8}1-5[8:1],2,3q7[8:1],4,1-5[8:1],2,3<6[8:1],4,
8-4[8:1],7,6p2[8:1],5,8-4[8:1],7,6,
{24}5-1[8:1],,,,4,,,,
{8}3,2p6[8:1]*v5[8:1],,
{32},
{8}2,,78,7q4[8:1]/8q5[8:1],,78,,,,
1h[8:2]/7h[8:2],,,8-4[8:1],,
{16}8-3[8:1],1,2,,8-5[8:1],7,6,,8-3[8:1],1,2,,
8-5[8:1],7,6,,8,1,2,,
8,8-6[8:1],1,,8,8-5[8:1],2,,8,8-4[8:1]*-4[8:1],3,,8,8,3,,,,,,
{16}7b-5[8:1]/2b-4[8:1],,,,,,,,5bv4[8:1]*v4[8:1],,,,,,5b-8[8:1]*-8[8:1],,,,,,5bq4[4:1]*q4[4:1],,,,5,,,,,,1b>5[4:1]*<5[4:1],,,,,,,,,,7,1,7,1,7,2,7,2,7,3,7,4,7,3,7,,
{8}4bq8[8:1],,3-7[8:1]/4,3,2q6[8:1],,1-5[8:1],1,8q4[8:1],,
7q3[8:1],7,6-2[8:1],,5q1[8:1],5,4-8[8:1],,4,,
6,5-1[8:1],,5,8-3[8:1],7-4[8:1],8,7,,,4-8[8:1],,
{16}4-1[8:1],3,2,,4-7[8:1],5,6,,4-1[8:1],3,2,,4-7[8:1],5,6,,4-8[8:1],3,2,,
4,,,,17,,,
{12}36,,45,
{16},2/7b-2[8:1]*-2[8:1],,,,,,5b-3[8:1]*-8[8:1],
,,,,,,,,,17,,2b-6[8:1]*-6[8:1]/6,,35,,2b<3[32:49]*<3[32:49]/6,
{8},,,,,,,,,,,,,,,,,,E
