&title=Arcise
&artist=EspiDev,L. Mity
&first=0.05
&lv_5=1
&des_5=
&inote_5=
(174)
E
&lv_6=14
&des_6=Lu000
&inote_6=
(174){64}4,5h[64:47],{4},{16},{32},{8}3,{2}4h[4:1],
{64}3,4h[64:15],{4},{16},,,{32},{64}6,5h[64:15],{4},{16},,,{32},{8}2,
4,3,3,7,5,6,6,
{4}4h[4:3],5,{2}5h[4:1],
{4}7/2,{8}3,4,,,{4}6,
7/4,{24}6,5,6,5,,,{4}7/4,5/2,
{2}1/8<5[2:1],{4}4,4h[1:1],
,7,{2}6h[4:1],
{64}3,5h[64:47],{4},{16},{32},{8}2,{2}1h[4:1],
{64}5,2h[64:15],{4},{16},,,{32},{64}4,7h[64:15],{4},{16},,,{32},{8}2,
5,4,5,1,6,5,6,
{4}8,1,{8}2h[4:1],{24}8,7,6,{8}5,1b,
,,3,2,3,4,5,6,
4,5,4,3,4,5,4/6,3/7,
{1}8h[1:1]/2<4[2:3],
{8},,,,,,,,1h[8:1],
7h[8:1],3h[8:1],5h[8:1],2h[8:1],8h[8:1],4h[8:1],6h[8:1],
{1}3pp7[2:1]*>8[4:1],
{8}8h[8:1],2h[8:1],6h[8:1],4h[8:1],7h[8:1],1h[8:1],5h[8:1],3h[8:1],
{2}6z2[2:1],2,
{8}1h[8:1],2h[8:1],3h[8:1],4h[8:1],5h[8:1],6h[8:1],7h[8:1],8h[8:1],
{1}1>8[2:1],
{8}8h[8:1],7h[8:1],6h[8:1],5h[8:1],4h[8:1],3h[8:1],2h[8:1],1h[8:1],
{4}8>7[2:1],,,1b,
{8}6,4,5/3,2/8,7,6/4,5/3,2,
1/8,7/5,4,2/5,1,8,7/5,4,
3h[2:1],4,5,6,7h[2:1],8,1,2,
3v8[8:1],6,5,4<7[8:1],2,3>8[8:1],,3,
6,7,8/1,2,{32}8,1,{16}8,{8}2,6,4/5,
3,4/5,6,3h[8:1]/7h[8:1],,6/2,1/5,8q2[8:9]/4q6[8:9],
,,,,,,,,,,,,1h[4:1],
{32}8,7,6,5,{4}4,
{8}3b,5,4/6,7/1,2,3/5,4/6,7,
8/1,2/4,5,7/4,8,1,2/4,5,
6h[2:1],5,4,3,2h[2:1],1,8,7,
6v1[8:1],3,4,5>2[8:1],7,6<1[8:1],,6,
3,2,1/8,7,{32}1,8,{16}1,{8}7,3,5/4,
6,5/4,3,6h[8:1]/2h[8:1],,3/7,8/4,1p7[8:9]/5p3[8:9],
,,,,,,,,,,,,1/6,
5/3,2v4[8:1]/8q4[8:1],7,
{1}2b/8b<1[4:15],
,,,4h[4:5],
{4},5b<4[1:2],{1},,{4},{16},,{24}1,
2,3,
{4}4/5h[1:2],6,7,{8}8,8,
{4}8,1,2,3,
4h[4:7],3,2,{8}1,8,
{4}7,6,{2}5h[4:1],
{8}5,{16}2,2h[16:3],,,8,8h[16:3],,,4,4h[16:3],,,{8}5,
2,{16}6,6h[16:3],,,8,8h[16:3],,,1,1h[16:3],,,{8}3,
{16}5,4/6,,,{4}7h[8:1]/3h[8:1],{16}1,2/8,,,{4}7h[8:1]/3h[8:1],
{16}4,5,3,6,2,7,1,8,{32}1,2,3,4,5,6,7,8,5q7[4:9]/1-4[8:1],4,3,2,1,8,7,6,
{1}5/1bq3[1:2],
,,{4},,,{8},{16}1,
1,
{8}8b-4[8:1],2,8<5[8:1],2,{16}8-4[8:1],3,{8}4-7[8:1],8,2,
1h[16:3],{16}8,8,,,{8}6/2-6[8:1],,2>5[8:1],8-4[8:1],2,
8,{16}3,3,,5,{8}5,{16}2,8,5,6,1,7,3,4,
{8}1,6-1[8:1]/2-6[8:1],,2/6,,3-8[8:1],7V51[4:1],3,
{4}7,{8}4,4-8[8:1],{16}8V61[4:1],7,{8}6,5,5h[4:1],
,2<5[4:1],3,2/4h[4:1],,,4,{16}3,3,
{4}5<8[8:1],{8}2,{16}1,2,3,4,{8}8w4[8:1],6/2,8>7[8:3],
,,,,1,2,3/8,7,
6/1b-6[8:1],5,1>4[8:1],4-8[8:1],{16}1,5,{8}5,6v1[8:1],1V75[4:1],
{16}6,,,3,{8}3,4>1[8:1],,4-8[8:1],8V61[4:1],4,
{16}5h[8:1],,,4h[8:1],,,{8}3,{16}1,2,3,4,5/8,7,6,5,
4h[8:1]/2h[8:1],,,2h[8:1]/4h[8:1],,,{8}1/5,,1-5[8:1],4,1,
7<4[8:1],8v3[8:1],7,8,{16}7,6,{8}5v2[8:1],{16}2V48[4:1],3,{8}4,
{2}1h[4:1],{16}8,7,6,5,4/2,5/3,6/4,7/5,
{2}8h[2:1]/6-2[8:1],1b,
{4}3-8[8:1]/7v4[8:1],3<6[8:1]/7>2[8:1],3/7,8b,
{8}1-5[8:1],7<4[8:1],1-3[8:1],7,{16}1-5[8:1],6,{8}5-2[8:1],1,8,
{16}7,,,6,{8}5,4/1-5[8:1],,1>4[8:1],6pp2[2:1],1,
{16}6,,,5h[8:1],,,{8}4,{16}3h[8:1],,,3,,,{8}3/2,
2/1,1s5[8:1]/8z4[8:1],,1b/8b,,2v5[8:1],5V38[4:1],2,
7,7,6,5,{16}1-5[8:1],2,{8}3>6[4:1],1,3,
,5v8[8:1]*v2[8:1],5,5,,,7/3,{16}5,5,
{4}4-2[8:1],{8}4-8[8:1],7-5[8:1],4,7,1>4[8:1],4-8[8:1]*-7[8:1],
,,,,8w4[8:1],6/2,{4}8,
{8}1b-5[8:1],7,1>4[8:1],7,{16}1-5[8:1],6,{8}5-2[8:1],1,7,
8h[16:3],{16}1,1,,,{8}3/7,{24}8,4,8,4,8,4,{16}7,3,7,3,
6h[8:1]/2h[8:1],,,3h[8:1]/7h[8:1],,,{8}4/8,2,6,{16}4,5,{8}4,
6,{16}3-8[8:1]/7v4[8:1],3/7,,,{8}7/3,,6,4/7,3/8,
2>5[8:1],1v6[8:1],2,1,{16}2,3,{8}4v7[8:1],{16}7V51[4:1],6,{8}5,
,8,7,6h[8:3],,,1-5[8:1],{16}5,5,
{2}1,7qq5[8:1]/3qq1[8:1],
6-2[8:1]/2-6[8:1],{8}1w5[8:1],7/3,{4}1,
{8}8<5[8:1],2,8,{16}4,3,2>5[8:1],1,{8}8,{4}6/2,
{8}8p4[8:1],2,8,{16}1,8,7-3[8:1],6,{8}5,{4}7/3,
{8}1>4[8:1],7,1,{16}5,6,7<4[8:1],8,{8}1,{4}3/7,
{8}1q5[8:1],7,1,{16}8,1,2-6[8:1],3,{8}4,{4}2/6,
{8}8,4,7/3,{16}2,6,3,4,{8}1,{4}6h[8:1]/2h[8:1],
{8}1h[8:3],8h[4:1],{32},,,,,,,,2,3,4,5,2,3,4,5,1,2,3,4,1,2,3,4,
{16}8,6,1,7,2,8,3,1,4,3,2,1,8,7,6,5,
{8}4/8,{32}7,6,5,4,7,6,5,4,8,7,6,5,{16}1,2,3,4,8,7,6,5,
{1}4pp7[4:5]/1b>4[4:3],
,8w4[4:5],
{16},,,,,,,,,,,,,,,,2,
4,2,4,2,4,2,4,3,4,3,4,3,4,3,4,
3,5,3,5,3,5,3,5,{24}3,4,3,6,5,6,2,3,2,7,6,7,
{16}3,4,5,6,7,8,1,2,{24}7,6,5,4,3,2,1,8,7,6,5,4,
{32}1,2,3,4,5,6,7,8,1,2,3,4,5,6,7,8,7,6,5,4,3,2,1,8,7,6,5,4,3,2,1,8z4[32:41]*-4[32:41],
{1}7b,
E
