&title=AA
&artist=D.J.Amuro
&first=0
&lv_5=12+
&des=えども~ん
&inote_5=(154){1},
{4}1-6[2:1],,,,4-1[2:1],,,,7-3[2:1],,,,
{4}3-8[6:1]/8-5[6:1],,6-2[6:1],,
{16}1,,1,7,1,,1,,1,,1,7,1,,1,,6,,6,5,6,,6,,6,,6,5,6,,6,,2,,2,4,2,,2,,2,,2,4,2,,2,,
{16}3,4,3,4,2,5,2,5,1,8,1,8,1,8,1,8,
{16}1/2b,,2,,5,,6,,7,8,,8,7,,1,,
{16}56,,8,,5,,4,,3,4,,4,3,,5,,
{16}34,,6
,,3,,2,,1,8,,8,1,,7,,
{16}5,6,,4,5,4,,3,4,3,,2,5,,7,,
{16}18,,2,,5,,4,,7,5,,5,7,,4,,
{16}34,,7,,4,,5,,1,3,,3,1,,5,,
{16}75,,3,,8,,1,,6,4,,4,6,,2,,
{16}7^4[4:1]/1,,,,4-8[4:1],,,,3,1,,1b,,,,,
{16}6,5,6,5,6,,7,,8-3[8:1],,,,,,,,
{16}4,5,4,5,4,,3,,2^5[8:1],,,,,,,,
{16}7,6,7,6,7,,5,,4-8[8:1],,,,,,,,
{16}1,8,1,8,1,,3,,4^7[8:1]/5^2[8:1],,,,,,,,
{16}8,1,8,1,8,,7,,8-4[8:1],,,,8,,,,
{16}2,1,2,1,2,,3,,2-6[8:1],,,,2,,,,
{16}7,8,7,8,7,,6,,5-1[8:1],,,,5^2[4:1],,,,
{4}2-6[4:1],6^1[4:1],1-5[8:1],,
{16}7,8,7,8,7,,6,,3,4,,4,3,,24,,
{16}2,1,2,1,2,,3,,5,4,,4,5,,64,,
{16}6,5,6,5,6,,7,,2,1,,1,2,,82,,
{16}7,5,6,4,5,3,4,,2,4,3,5,4,,46,,
{16}7,6,5,4,3,,3,,6-1[8:1],,,,,,,,
{16}5,4,3,2,1,,1,,5-8[8:1],,,,,,,,
{16}2,3,4,5,6,,6,,5-8[8:1]/4-1[8:1],,,,,,,,
{16}3,2,1,8,7,6,5,4,3,2,1,8,7,6,5,4,
{1}1b,
{16}83,,7,,6h[16:10],,5,,7,,,7,,,8,,
{16}25,,3,,4h[16:10],,5,,3,,,3,,,1,,
{8}7h[8:3]/4,6,5,4,6h[8:3],5,4,3,5h[8:3],6,7,8,6h[8:3],7,8,1,
{16}25,,6,,7h[16:10],,8,,1,,,3,,,4,,
{16}85,,4,,3h[16:10],,4,,5,,,7,,,8,,
{8}2h[8:3]/5,3,4,5,1h[8:3],2,3,4,2h[8:3],1,8,7,3h[8:3],2,1,8,
{16}16,,6,,7,,7,,1,8,,8,1,,1,,26,,2,,3,,3,,6,5,,5,6,,6,,45,,5,,6,,6,,7,8,,8,7,,7,,
{8}78,1,12,8,57,2,1b,,
{16}3,4,3,4,3,4,3,4,2,8,,6,1,,8,,6,5,6,5,6,5,6,5,7,1,,3,8,,1,,
{16}18,7,6,5,6,5,4,3,4,3,2,1,2,1,8,7,8,1,8,1,8,1,8,1,7,2,6,3,5,4,6,3,
{16}7b-4[8:1],,8,,1,,2,,3,4,,4,2,,35,,
{16}6-1[8:1],,5,,4,,3,,2,1,,1,3,,28,,
{16}1-5[8:1],,5,,6,,7,,7,8,,8,6,,28,,
{8}1-5[8:1]/3,1,2-6[8:1],2,3-7[8:1],3,4,4,
{16}5-1[8:1],,4,,3,,2,,6,5,,4,8,,83,,
{16}4-8[8:1],,5,,6,,7,,3,4,,5,1,,16,,
{16}7-3[8:1],,8,,1,,2,,1,8,,7,3,,26,,
{8}2-7[8:1],7-4[8:1],4-1[8:1],,{16}6,8,,8b,,,,,
{16}2,4,,5,3,,1,,8-3[8:1],8,,7,7,,6,,
{16}7,5,,4,6,,8,,1-6[8:1],1,,2,2,,3,,
{16}3,5,,6,4,,2,,1-5[8:1],1,,8,8,,7,,
{16}6,5,,2,5,2,,7,6,7,,2,1,2,,3,
{16}6,5,,4,7,,6,,4-8[8:1],4,,3,3,,2,,
{16}3,4,,5,2,,3,,5-1[8:1],5,,6,6,,7,,
{16}7,8,,1,6,,7,,8-4[8:1],8,,1,1,,2,,
{16}8-3[8:1],,3-7[8:1],,7-4[8:1],,4-8[8:1],,3,1,,1b,,,,,
{16}2,4,3,4,2,,2,,1-5[8:1],8,,8,7,,7,,
{16}7,5,6,5,7,,7,,8-4[8:1],1,,1,2,,2,,
{16}3,5,4,6,3,,2,,1-5[8:1],8,,8,6,,7,,
{16}6,8,7,1,6,,7,,5-1[8:1],4,,4,2,,3,,
{16}2,8,2,8,2,8,2,8,3,4,3,4,2,1,8b,,7,1,7,1,7,1,7,1,6,5,6,5,7,8,1b,,
{16}2,1,2,1,3,4,3,4,6,5,6,5,8,7,8,7,1,8,1,8,2,7,2,7,3,8,5,6,3,4,1,6,
{1}2b,,,,
