&title=赤色帝国(Red Empire)
&artist=Nces&watch
&first=-0.7
&lv_5=14
&des_5=青芽
&inote_5=
(130){4},,,,,,,,8,
7,6,5,
4,3,2,1,
{1}8/1q3[4:5],
{2},{4}7,7,
{1}3/6pp1[4:5],
{2},{4}3,1,
{1}7/2qq7[1:1],
{8},,,5,{16}6,{8},{16}4,{8},3,
{1}1w5[1:1],
{2},{8}6,5,{4}4,
{1}3h[4:3]/4<8[2:1],
2h[4:3]/1<5[2:1],
7h[4:3]/8>4[2:1],
6h[4:3]/5>1[2:1],
{4}6h[2:1]/3h[2:1],{2},{4}7,
{16}2,{8},{16}6,{8},3,{4}1/8h[4:3],2z6[4:1],
2,{2},{4}C/B5/B4,
E6,B5,B4,E4,
1/8<5[4:5],{8}1,1,{4},{8}2,2,
{4},3,4,3,
8/1>4[4:5],{8}8,8,{4},{8}7,7,
{4},6,5,6,
7/1,{8}8-4[8:1],8,{4},{8}2-6[8:1],2,
,,,7>2[8:1],{2}2v7[8:1],
{4}8/2,{8}1-5[8:1],1,{4},{8}7-3[8:1],7,
{4},5/4,{8}5/4,7,3,6,
{1}4h[4:3]/5<8[2:1],
{4}1q4[8:3]/8p5[8:3],{2},{8}2/7,6/3,
{1}5s1[2:1]/4z8[2:1],
Ch[4:3]/7<3[2:1],
{4}B8/B1/B5/B4/Ch[2:1],{2},{4}6,
{16}3,{8},{16}5,{8},4,{4}4,{8}5/4,6,
{4}B1/B8/B7/B2/E3/E7/C,{8}3,3,{4},{8}3,3,
{4},2h[4:3]/Ch[2:1],{2},{32}8bx,
7,6,5,{8},4/3,2,{4},{8}1/2,{16}7,8,
{4}7,{8}6/5,7/8,3b,6,2b,{16}7,7,
{32}1bx,2,3,4,{8},6/5,7/8,{4},{8}1/2,{16}3,4,
{4}3,{8}5/3,6,7b,7,8b,{16}1,8,
{32}1bx,2,3,4,{8},7q3[8:1],7/4,{4},{8}2,{16}4q8[8:1],3,
{4}4,{8}1,7x,6,{16}3,7,{8},{16}6,4,
{4}6p3[4:1],{8}2,1,,4,5,{16}8,7,
{8}8,1,,6/5,4,6,3,{16}6,6,
{32}2b,3,4,5,6,7,8,1,{8},6,,7,{4}3,
{32}7b,8,1,2,3,4,5,6,{8},4/5,3,{16}1,2,{8}1,8,
{32}7b,6/8,5/1,4/2,3,4,5,6,{8},3,,5,{4}5h[16:5],
{32}6,7,8,1/6,2,3,{16}4,{8},3,,2,1,8,
{32}8b/1b,7/2,6/3,5/4,{8},3,{32}2/5b,6,7,8,{4},{8}8<5[4:1],{16}5,8,
{4}5-1[4:1],{8}1>4[4:1],4,{4}4-8[4:1],{8}8<6p4[2:1],8,
{32}1b,2,3,4,{8},3,3,,5,{4}7/8,
{8}1,2,,3/4,,6/5,{4}7,
{32}8b/1b,7/2,6/3,5/4,{8},{32}8b/1b,7/2,6/3,5/4,{8},{32}1b/2b,8/3,7/4,6/5,{8},{32}1b/2b,8/3,7/4,6/5,{8},8-4[8:1],
4-8[16:1],{4}8,3bh[8:1]/7bh[8:1],E7/B6/B5/B4/B3/E3/Ch[32:1],
{32}7b/1b,6/2,5/3,4,{8},{32}7b/1b,6/2,5/3,4,{8},{32}2b/8b,3/7,4/6,5,{8},{32}2b/8b,3/7,4/6,5,{8},{4}6h[8:1]/2h[8:1],
7h[8:1]/3h[8:1],{8}8b/4b,1,8b/4b,3,
{32}5b/1b,6/2,7/3,8/4,{8},{32}5b/1b,6/2,7/3,8/4,{8},{32}6b/2b,7/3,8/4,1/5,{8},{32}6b/2b,7/3,8/4,1/5,{8},7/3,
7/3,8/4,{16}3,8-4[8:1],{8}2,8,{4}2,
{32}3/5h[16:5],2,1,8,{8},{32}8,1,2,3,{8},{32}6/4h[16:5],7,8,1,{8},{32}1,8,7,6,{8}4,
{4}3/5,{8}4/3,6,5-2[8:1],3,{4}1h[4:1],
{32}3,4,5,6/1,2,3,{16}4/8h[32:27],{8},4b,{4},6b,
{32}5,4,3,2/7,6/1h[4:3],5,{16}4,{8},3b,,4b,5b,4b,
{32}1/4,2/5,3/6,4/7,{8},4/7,{32}7/4,6/3,5/2,4/1-6[8:1],{4},5h[4:1],
{32}7,8,1,2/5,6,7,{16}8/4h[16:13],{8},1b,,8b,7b,8b,
{32}1,8,7,6/3,2,1,{16}8,{8}6,{32}5/8,6/1,7/2,8/3,{4},{32}8/3,7/2,6/1,5/8,7,6,5,4,
3/5,2/6,1/7,8,{8},{32}2,3,{16},{32}8,1,{16},{32}6,7,{16},,,{32}4,5,{16},{32}2,3,{16},{32}6/4,
7/3,8/2,1,{8},8,{32}1,2,3,4,{8},8,1,{16}8,1,
{32}8,7,6,5,{16}1,8,1,8,{32}1bx,2bx,3bx,4bx,{16}8bx,1bx,8b,2bh[16:3],{32}8b,7b,6b,5b,{16},4,
{32}3b,2b,1b,8b,7b,6b,{16}5b,
E
