&title=ノンフィクション!!
&artist=Liella!
&first=0
&des=盖乐世
&lv_2=13+
&inote_2=(232)
{1},,,
{12},,,,,,,,,,,,
{12}5,,3,,,,3,,,,,5,
{12}2,,,2,,,4,,,,,,
{12}5,,,3,,3,4,,4,,,,
{12}2h[12:2],,,2h[12:2],,,7,,7x,1x,,,
{12}5,,,,,6,5,,,5,,,
{12}6,,6,,,4,7,,7x,1x,,1x,
{12}6,,,4,,7x,5,,5,3xs7[2:1],,,
{8},,,,4h[8:2],,5>7b[16:9],,
{12}Cf,,,,,,,,,4,,,
{12}5/6,,,7,,4,5,,2,1,,3,
{12}4h[4:1],,,1,,,34,,1-5[32:5]/5,,,,
{12}8,,,7,,7,6,,6,5h[4:1],,,
{12}3>6b[8:3],,,Cf,,,,,,,,8,
{12}4,,6,2,,5,4,,7,8,,6,
{12}5h[4:1],,,8,,,65,,8-4[32:5]/4,,,,
{12}1,,2,2-5[8:1],,,6,,7,7-5-8-4-1-3b[4:5],,,
{12},,,,,,,,,,,,
{12},,,,,,,,,1b,,,
{12}3xh[4:1],,,4,,,5h[4:3]/2h[4:1],,,,,,
{12},,,4,,,35,,,7,,,
{12}6h[4:3]/4,,,5,,,3,,,5,,,
{12}4,,6,5,,,37,,,1b,,,
{12}6h[4:1],,,5,,,4h[4:3]/7h[4:1],,,,,,
{12},,,5,,,46,,,2,,,
{12}3/4h[12:5],,,,,2,5h[12:5],,,,,3,
{12}4,,4,3,,,46,,,1b/8b,,,
{12}2x,,,7,,7,5,,,6,,6,
{12}1,,4^6[32:5],,,3,,,,2,,,
{12}34,,,6,,6,1,,4^7[32:7],,,3q8[32:11],
{12},,,,,,,,,{16}1,,,,
{12}6h[6:1],,5h[6:1],,7,,2h[6:1],,4h[6:1],,3,,
{12}8h[6:1],,1h[6:1],,8,,{48}B2/B7,C,,,{12},,,,,
{12}3x,,3x,7x,,7bx,5x,,5x,6x,,6x,
{12}1x,,,3xq1[32:9]/4x<8[32:9],,3x/4x,,,,,,,
{12}1xh[4:7],,,A6/E6,,,,,,B5/E5,,,
{12}4x,,,B3/E4,,,,,,A2/E3,,,
{12}1xh[4:1]/7xh[4:1],,,,,,2xh[4:1]/5xh[4:1],,,,,,
{12}7x/3xV14[32:14]*pp4[32:14],,,,,,,,,,,,
{12}1-5[32:11],,,{16},,7,,{12},,,6,,,
{12}8-4[32:11],,,{16},,2,,{12},,,3,,,
{12}1-5[4:1]`8-4[4:1],,,{16},,,,{12},,,36,,,
{12}7,,7,5,,,3,,3,4,,,
{12}4bx/2bx,,,5,,,75,,,4,,,
{12}42,,,5-3b[32:7],,,7-5b[32:7],,,,,,
{12}1,,,4,,4,2q7b[16:7],,,{16},,6h[16:6],,
{12},,,,,,1,,1,8,,,
{12}2x/7x,,,3,,4,2q4[16:9],,,6,,,
{12}8h[2:1],,,,,,5,,5,6^3[32:5],,,
{12}1,,,,,2,4,,3,6,,5,
{12}7,,3,4,,2,7,3,7,3,7,3v5-2[48:40]*v5-2[48:40],
{12}6xV85[48:36],,,,,,,,,,,,
{12},,,,,,46,,,3>7[4:1]/7,,,
{12}4b,,,6h[4:1],,,8,,8<2[48:17],,,5,
{12},,,8h[4:1],,,1x,,5,2,,5,
{12}8,,,{16}6,,7^2[32:5]/5,,,,4h[4:3],,,,E3,,
{16},,C,,,,E7,,,,,,2/7<3[4:1],,,,
{12}8b,,,1h[4:1],,,4,,2>6[4:1],,,1,
{12},,,7h[4:1],,,5x,,6,2,,6,
{12}4,,,{16}8,,1h[4:1]/7,,,,4-8[8:1],,,,2x-5[8:1],,
{16},,6x<3b[16:6],,,,6xh[8:3],,,,,,,,,,
{12}4b,,,1/7,,,6^1[32:5],,6,2,,,
{12}3,,,2/8,,2,7^4[32:5],,,1,,,
{12}3,,,1/7,,,6^1[32:5],,6,2,,,
{12}3,,,2/8,,,4h[4:1],,,2^7b[32:5],,,
{12}4xq5b[2:1]/D2f,,,,,,,,,8x,,,
{12}6,,6,5,,5,4,,4,3,,,
{12}7x/5x,,7,3,,,4x/2x,,2,7,,,
{12}6bx/5bx,,7,2,,,3bx/4bx,,2,8,1,8,
{12}2b^5p8[4:5]/7b^4q1[4:5],,,,,,,,,,,,
{12},,,,,,,,,,,,
{12}3<1[16:9]/7,,,5h[2:1],,,,,,,,,
{12}6h[4:1],,,5,,5,7,,7,8,,,
{12}2/4,,,7x,,,3/5,,1,8,,,
{12}24,,,7,,3,5,,,1,,7,
{12}5,,3,5,,7,5,,3,5,,7,
{12}5,4,3,2,,4-1b[32:5]*-7b[32:5],{16},,4bx,,,,,,
{12}6bx^1[4:1]/2bx^5[4:1],,,,,,,,,{16}3,,7,,
{16}1,,5-7[4:1],,,,7-4[4:1],,,,4-8[4:1],,,,8-3[4:1],,
{16},,3>5[12:6],,,,5,,,,4,,4,,,,
{48}E3/E4,B3,,,{12},,E7/B6/E6,,,1,,1,8,,,
{12}2,,,{24}3h[12:5]/E6f,E5,A4,,,,{12},,1x,2x,,,
{12}5,,,{24}7xh[12:5]/B2f,C,B6,,,,{12},,1x,8x,,,
{12}3,,,{24}1bxh[12:5]/E8f,C,E4,,,,{12},,5x,2x-5[32:5]/6x-1[32:5],,,
{12},,,,,,3,2,1,8,7,6,
{12}5b-8-5[4:6]/4b,,,,,,,,,,,,
{12},,,,,,,,,,,,
{12}3^6^3[4:6],,,,,,,,,,,,
{12},,,,,,,,,,,,
{12}6qq4qq2qq8[4:6],,,,,,,,,,,,
{12},,,,,,,,,,,,
{12}1-5-1[4:6],,,,,,,,,,,,
{12},,,,,,,,,,,,
{12}5h[1:2],,,,,,6,,,,,,
{12}4,,,,,,6,,,,,,
{12}4h[4:6],,,,,,3,,,,,,
{12}5,,,5,,,3x,,,,,,
{12}8x/1x,,,2,,2,4,,,7,,,
{12}6,,6,1,,,3,,3,7^4b[32:5],,,
{12}8,,,,,2,4,,3,6x,,5,
{12}7x,,3,4,,,6,5,4,3,,,
{12}5V72[4:3]`1V36[128:95]*V36[128:95],,,,,,,,,,,,
,,,,,,35,,,2<6[4:1]/6,,,
{12}4b,,,5h[4:1],,,7,,7<1[48:17],,,5,
{12},,,8h[4:1],,,1x,,6,5,,8,
{12}2,,,{16}7,,6^3[32:5]/8,,,,2h[4:3],,,,E3,,
{16},,C,,,,E7,,,,,,2/6>2[4:1],,,,
{12}8b,,,1h[4:1],,,7,,3<7[4:1],,,1,
{12},,,8h[4:1],,,2x,,4,3,,5,
{12}1,,,{16}8,,1h[4:1]/7,,,,3-8b[8:1],,,,1bx-5b[8:1],,
{16},,6bx<3b[16:6],,,,6bxh[8:3]/E7/A7f/E8,,,,,,,,,,
{12}4b/5b,,,8/7,,,6^1[32:5],,6,2,,,
{12}4,,,2/1,,2,7^4[32:5],,,8,,,
{12}3,,,8/7,,,6^1[32:5],,6,2,,,
{12}3,,,2/1,,,4bxh[4:1],,,2x^7b[32:5],,,
{24}4xq5b[2:1]/D2f,D1,D8,,,,{12}4bx,,,,,,8x,,,
{12}7,,7,5,,5,4,,4,2,,,
{12}6x,2,4,2,4,2,7x,3,5,3,5,3,
{12}8bx,4,6,4,6,4,1bx,5,7,5-8^1-4b[12:16],7,5,
{12}A2/B2f/E2,,,,,,,,,,,,
{12},,,,,,,,,3/7,,,
{12}56,,,56,,,{16}37,,45,,,,2/8v2[12:2]*v5[12:2],,
{12},,,,,,1xh[4:1],,,4-8[8:1],,,
{12},,,2bx/6bx,,,34,,,34,,,
{16}26,,45,,,,17,,,,,,37,,,,
{12}5x/6x,,,56,,,{16}37,,45,,,,28,,
{12}2x-5[8:1],,,,,,8bx-4b[8:1],,,,,,
{12}2xb,,,1/6,,,34,,,34,,,
{16}15,,4^7[12:2]/3,,,,1,,{12},,,83,,,
{12}6/5,,,65,,,{16}48,,5^2[12:2]/6,,,,8v5[12:2]*v2[12:2],,
{12},,,,,,6x,,6x,3-8[8:1],,,
{12},,,1bx/6bx,,,34,,,34,,,
{16}1h[8:3],,8h[8:2],,,,,,{12}2,3,4,7,6,5,
{12}4qq4[116#12:6],,,4pp4[12:12]*pp4[12:12],,,,,,,,,
E
&inote_7=(232)
{1},,,
{12},,,,,,,,,,,4,
{12}5,,3,,,,3,,,,,5,
{12}3,,,3,,,4,,,,,2,
{12}5,,,3,,3,4,,4,,,,
{12}2h[12:2],,,2h[12:2],,,7,,7x,1x,,,
{12}5,,,,,6,5,,,5,,,
{12}6,,6,,,4,7,,7x,1x,,1x,
{12}6,,,4,,7x,5,,5,3xs7[2:1],,,
{8},,,,4h[8:2],,5>7b[16:9],,
{12}Cf,,,,,,,,,4,,,
{12}5/6,,,7,,4,5,,2,1,,3,
{12}4h[4:1],,,1,,,34,,1-5[32:5]/5,,,,
{12}8,,,7,,7,6,,6,5h[4:1],,,
{12}3>6b[8:3],,,Cf,,,,,,,,8,
{12}4,,6,2,,5,4,,7,8,,6,
{12}5h[4:1],,,8,,,65,,8-4[32:5]/4,,,,
{12}1,,2,2-5[8:1],,,6,,7,7-5-8-4-1-3b[4:5],,,
{12},,,,,,,,,,,,
{12},,,,,,,,,1b,,,
{12}3xh[4:1],,,4,,,5h[4:3]/2h[4:1],,,,,,
{12},,,4,,,35,,,7,,,
{12}6h[4:3]/4,,,5,,,3,,,5,,,
{12}4,,6,5,,,37,,,1b,,,
{12}6h[4:1],,,5,,,4h[4:3]/7h[4:1],,,,,,
{12},,,5,,,46,,,2,,,
{12}3/4h[12:5],,,,,2,5h[12:5],,,,,3,
{12}4,,4,3,,,46,,,1b/8b,,,
{12}2x,,,7,,7,5,,,6,,6,
{12}1,,4^6[32:5],,,3,,,,2,,,
{12}34,,,6,,6,1,,4^7[32:7],,,3q8[32:11],
{12},,,,,,,,,{16}1,,,,
{12}6h[6:1],,5h[6:1],,7,,2h[6:1],,4h[6:1],,3,,
{12}8h[6:1],,1h[6:1],,8,,{48}B2/B7,C,,,{12},,,,,
{12}3x,,3x,7x,,7bx,5x,,5x,6x,,6x,
{12}1x,,,3xq1[32:9]/4x<8[32:9],,3x/4x,,,,,,,
{12}1xh[4:7],,,A6/E6,,,,,,B5/E5,,,
{12}4x,,,B3/E4,,,,,,A2/E3,,,
{12}1xh[4:1]/7xh[4:1],,,,,,8xh[4:1]/3xh[4:1],,,,,,
{12}1x/5xqq3[32:11]*pp7[32:11],,,,,,,,,,,,
{12}8-4[32:11],,,{16},,2,,{12},,,3,,,
{12}1-5[32:11],,,{16},,7,,{12},,,6,,,
{12}1-5[4:1]`8-4[4:1],,,{16},,,,{12},,,36,,,
{12}7,,7,5,,,3,,3,4,,,
{12}4bx/2bx,,,5,,,75,,,4,,,
{12}42,,,5-3b[32:7],,,7-5b[32:7],,,,,,
{12}1,,,4,,4,2q7b[16:7],,,{16},,6h[16:6],,
{12},,,,,,1,,1,8,,,
{12}2x/7x,,,3,,4,2q4[16:9],,,6,,,
{12}8h[2:1],,,,,,5,,5,6^3[32:5],,,
{12}1,,,,,2,4,,3,6,,5,
{12}7,,3,4,,2,7,3,7,3,7,3v5-2[48:40]*v5-2[48:40],
{12}6xV85[48:36],,,,,,,,,,,,
{12},,,,,,46,,,3>7[4:1]/7,,,
{12}4b,,,6h[4:1],,,7,,7<1[48:17],,,5,
{12},,,8h[4:1],,,1x,,5,2,,5,
{12}8,,,{16}6,,7^2[32:5]/5,,,,4h[4:3],,,,E3,,
{16},,C,,,,E7,,,,,,2/7<3[4:1],,,,
{12}8b,,,1h[4:1],,,4,,2>6[4:1],,,1,
{12},,,7h[4:1],,,5x,,6,2,,6,
{12}4,,,{16}8,,1h[4:1]/7,,,,4-8[8:1],,,,2x-5[8:1],,
{16},,6x<3b[16:6],,,,6xh[8:3],,,,,,,,,,
{12}4b,,,1/7,,,6^1[32:5],,6,2,,,
{12}3,,,2/8,,2,7^4[32:5],,,1,,,
{12}3,,,1/7,,,6^1[32:5],,6,2,,,
{12}3,,,2/8,,,4h[4:1],,,2^7b[32:5],,,
{12}4xq5b[2:1]/D2f,,,,,,,,,8x,,,
{12}6,,6,5,,5,4,,4,3,,,
{12}7x/5x,,7,3,,,4x/2x,,2,7,,,
{12}6bx/5bx,,6,2,,,3bx/4bx,,3,8,1,8,
{12}2b^5p8[4:5]/7b^4q1[4:5],,,,,,,,,,,,
{12},,,,,,,,,,,,
{12}3<1[16:9]/6,,,4h[2:1],,,,,,,,,
{12}6h[4:1],,,5,,5,7,,7,8,,,
{12}2/4,,,7x,,,3/5,,1,8,,,
{12}24,,,7,,3,5,,,1,,7,
{12}5,,3,5h,,6,5h,,4,5h,,7,
{12}5,4,3,2,,4-1b[32:5]*-7b[32:5],{16},,B4f,,,,,,
{12}6bx^1[4:1]/2bx^5[4:1],,,,,,,,,{16}4,,7,,
{16}2,,5-7[4:1],,,,7-4[4:1],,,,4-8[4:1],,,,8-3[4:1],,
{16},,3>5[12:6],,,,5,,,,4,,4,,,,
{48}E3/E4,B3,,,{12},,E7/B6/E6,,,1,,1,8,,,
{12}2,,,{24}3h[12:5]/E6f,E5,A4,,,,{12},,1x,2x,,,
{12}5,,,{24}7xh[12:5]/B2f,C,B6,,,,{12},,1x,8x,,,
{12}3,,,{24}1bxh[12:5]/E8f,C,E4,,,,{12},,5x,2x-5[32:5]/6x-1[32:5],,,
{12},,,,,,3,2,1,8,7,6,
{12}4bpp5^2[4:5]/5b,,,,,,,,,,,,
{12},,,,,,,,,,,,
{12}6^3^6[4:5],,,,,,,,,,,,
{12},,,,,,,,,,,,
{12}1w5[4:5],,,,,,,,,,,,
{12},,,,,,,,,,,,
{12}8-4-8[4:5],,,,,,,,,,,,
{12},,,,,,,,,,,,
{12}4/5h[1:2],,,,,,6,,,,,,
{12}4,,,,,,6,,,,,,
{12}4h[4:6],,,,,,3,,,,,,
{12}5,,,5,,,3x,,,,,,
{12}8x/1x,,,2,,2,4,,,7,,,
{12}6,,6,1,,,4,,4,3^8b[32:5],,,
{12}8,,,,,7,5,,6,3x,,4,
{12}2x,,6,5,,,4,3,5,6,,,
{12}4V27[4:3]`8V63[128:95]*V63[128:95],,,,,,,,,,,,
,,,,,,35,,,2<6[4:1]/6,,,
{12}4b,,,5h[4:1],,,7,,7-3b[32:5],,,5-1[32:5],
{12},,,,,,4x,,1,2,,8,
{12}5,,,{16}7,,6^3[32:5]/1,,,,2h[4:3],,,,E3,,
{16},,C,,,,E7,,,,,,2/6>2[4:1],,,,
{12}8b,,,1h[4:1],,,8,,3<7[4:1],,,1,
{12},,,8h[4:1],,,2x,,4,3,,5,
{12}1,,,{16}8,,1h[4:1]/7,,,,3-8b[8:1],,,,1bx-5b[8:1],,
{16},,6bx<3b[16:6],,,,6bxh[8:3]/E7/A7f/E8,,,,,,,,,,
{12}4b/5b,,,8/7,,,6^1[32:5],,6,2,,,
{12}4,,,2/1,,2,7^4[32:5],,,8,,,
{12}3,,,8/7,,,6^1[32:5],,6,2,,,
{12}3,,,2/1,,,4bxh[4:1],,,2x^7b[32:5],,,
{24}4xq5b[2:1]/D2f,D1,D8,,,,{12}4bx,,,,,,8x,,,
{12}7,,7,5,,5,4,,4,2,,,
{12}3x,6,4,6,4,6,2x,5,3,5,3,5,
{12}1bx,6,4,6,4,6,8bx,5,3,5,3,5-7^2-4b[12:16],
{12}7b,,,,,,,,,,,,
{12},,,,,,,,,,,,
{12}4/3h[8:4],,,2,,,4,,1,,,1v4[16:3]*v7[16:3],
{12},,,,,,,,,,,,
{12}54,,,3h[8:6],,,4,,,2,,,
{12}4,,2>4[12:2],,,2,,,,6h[8:6],,,
{12}5,,,7,,,5,,8<3[12:7],,,3,
{12}3bx,,,,,,2bx,,,,,,
{12}1bx/8bx,,,6h[8:6],,,5,,,7,,,
{12}5,,7<5[12:2],,,7,,,,3h[8:6],,,
{12}4,,,2,,,4,,1,,,1v4[16:3]*v7[16:3],
{12},,,,,,,,,,,,
{12}54,,,3h[8:6],,,4,,,2,,,
{12}4,,2>4[12:2],,,2,7,6,5,2,3,4,
{12}5/6pp4[12:11],,,3qq5[12:8]/4,,,,,,,,,
