&title=深紅のエヴェイユ
&artist=少女病
&first=0.45
&des=深紅の魔女
&lv_6=14+
&inote_6=(150)
{4},,,,5h[1:1]/C,,,,4h[1:1],,,,8-6-4-2-8[16:24]*z4[2:1],,,,3h[1:1],,,,A1,A8,{16},A7,,,,,6h[1:1]/C,,{4},,,,,,{16},,,,1,,,,2,,,,{4}3,4pp4qq4[1:2],,8,,7<5pp8[1:2],,,,,,{16},,,,{4}2,{8},,1-5[2:1],,,,1<5p5[16:18]*q1>5[1:1],,,,,,,,,,,,6bhx[2:1]/4bhx[4:1],,,,5h[4:1],,,,2h[4:1]/8h[4:1],,,,1h[8:1],,3h[8:1]/7h[8:1],,{16}1bs5[16:1]/8bz4[16:1],,2b/7b,,,,,,1h/8h,,,,7bh[8:1],,1,,7,6,5,4,8,7,6,5,1,8,7,6,2,1,8,7,6b,,1,,{8}34,7-4[16:1],8,1,2-5[16:1],1,8,7-4[16:1],8,1,2-5[16:1],1,8,7,7b-2[16:1],6,5,4-7[16:1],3,2,1-4[16:1],8,7,6-1[16:1],5,4,3,2,{16}1-5[16:1],7,2,8,1b,,7,,5-2[16:1]/6,,3,,1-6[16:1]/5,,{8}8,1/5-2[16:1],4,5/2-7[16:1],1,2/6-3[16:1],5,6/2-7[16:1],1,2/5,4,3-1[16:1],4,3-8[16:1]/5,6,3-7[16:1]/7,6,35,4h[8:1],
{16}8-4[16:1],1,2,3,8/4b,,1,,1-5[16:1],8,7,6,1/5bw1[16:1],,3,,
{16}5,,34,,2,,7-5[16:1]/8,,,,1/7,,2,,3-5[16:1],,,,35,,6,,7-3[16:1],,,,8,,1,,2-6[16:1],,,,2-4[16:1],,1,,8-4[16:1]/2,,,,8-6[16:1]/4,,3,,2h[4:1]/8,,,,5h[4:1],,,,3h[4:1],,,,1-5[16:1],,,,,,3,,,,12,,1pp4[1:1]/8,,,,8,,7,,6h[16:6],,,,,,,,6-1[16:1],,,,,,,,2,3,41,,48,,47,,6-2[16:1]/5,,,,3h,,1,,8,,6,4,5,3,8b,,1h[8:1],,4,2,5,3,6b,1,82,37,4/6h[8:1],,5b,,1v6[16:1],,8,7,1,,5-1[16:1],,34,,5,2,2,,78,,6-2[16:1],,5,7,6,,8v3[16:1],,56,,8,1,1,,4/5-7-1[8:1],,1-6[16:1],,5,2,2,,4-2-8[8:1],,8-3[16:1],,4,7,7,,5>1[4:1],,,,1<5[4:1],,,,5>7[3:1],,,,,,6,,5,,4,,3-7[8:1],,7-1-4[4:1]/2,,3,,6,,5h[8:1],,,,5-7-1-6[4:1],,34,,5,,,,,,,,3,4,3-7[16:1],,1-5[16:1],,3,,1s5[4:1],,,,1/5,,,,7p3[16:1],,8b,,,1,2h[8:1],,4h[8:1],,1,,4,3,4,2,8h[8:1],,4b,,84,37,2/6-2<4[2:1],,84,,26,,4,,3,,2,,1b,,4,3,4,,1b,,6,5,6h[4:1],,8v3[16:1],,1,,38,,,4v7[16:1],,,3,,,,1w5[16:1],,,,1<6-2>5[2:1],,,,1,,6,,5-1[8:1],,,,,,,,28,37,4h[4:1]/6,,8,,7,,6-8-2[4:1]/4,,,,2-4-6[4:1],,,,6<4b[4:1],,,,,,4,,8hx[2:1],,,,,,,,7,1,8,2,1,3,6,4,5,3,4,2,8,1,8h[8:1],,1,2,3b/4b-8[16:1],,5b/6b,,2b/4b,,2bh[8:1],,1-5[16:1],8,7,6,1/5bw1[16:1],,,,5<5[4:1]*>5[4:1],,,,A5f/D6/D5,,,,,,42,,81,,7/5,,1,,7-3>4[2:1]/3-7[16:1],3,,,,,,,,,,,1,,2,,3v8[8:1],,8-2-4-6<7[3:1],,3,,,,4,,,,1,,1x,2,3,4,1x,2,3,4,5x/8,1,2,3,4x,5,6/2h[16:2],7,8b-4[16:1],,,,8/1-5[16:1],,,,1/2-6[16:1],,,,2/8-6-4[8:1],,,,1,,1,2h[16:7],,,,,,,7-5-1[8:1],,28,,7,3,3,,2-4[16:1],,,,21,,8,,7-4[16:1],,64,,7-3[16:1]/3,,1b,,,1b-4-1[8:1],,,8b,,8,7,6h[8:1],,8,8,,1-5[16:1]/2,,,3bh[8:1],,,,34,,6-1[16:1],1-5[16:1],1,,6,,2,,3,,4-8[16:1],8-2[16:1],8,,4,,7,,6,,5-3[16:1],3-6[16:1],3,,1/5,,8,,7-5-8[8:1],,1pp4[2:1],1,7,,1<1<6[16:12],,,,1,,,,,,,,5,,,,4,,13,,78,78,,,5/6-2[16:1],5/6,,,2,,8-4[16:1],,,,78,,5-1[16:1],,4,4,,3,3,,82,,57,,4/2h[8:1],,3,3,,1b,,37,7p7<3[8:10]*>3q3[8:14]/3h[16:3],
{4},,,,,,,,
{16},,,,,4bz8[16:1]/5b-1[16:1],,3b/6b,,45,,2x/7x,,1x,2,8,7,2,3,7,6,3,4,6,5,1,8,2,7,1,8,2v5[16:1],,1,,2/8,,8x,7,6,5,8,7,1,8,4,3,2,1,4,3,5,4,1,8,7,6,1,8,2,1,5,4,3,2,1h[8:1],,7,,1x,6,2,4,3,1,4,8,5,6,8,7,1,6,2,5,3,4,2,1,2,1,2,5,3,4,7,1,8h[8:1],,1,,8x,6,7,5,6,4,1,2,4,3,5,4,6,8,7,5,6,1,8,3,4,,8h[8:1],,7-3[16:1],1,6,8,7,,15,
,,,3b-1-4[8:1]/4,,6,6,,8,,,83,,82,,1h[8:1]/8,,7-5-8[8:1],,1b,,2,2,,3,,,13,,83,,3/7h[8:1],,5-3-1[8:1],,7b,,58,8,,6,,,51,,52,,5/3h[8:1],,6-8-2[8:1],,3b,,46,4,,3,,,35,,36,,3/7h[8:1],,1b,,78,,1-5[16:1],6,3,4,1,,8,,7,,56,,8-4[16:1],3,6,5,8,,3h[8:1],,5-1[16:1],3,6,4,5,,2h[8:1],,8-4[16:1],2,7,1,8,,3h[8:1],,6-2[16:1],5,7,4,6,,8h[16:4],,,,7,,1/2h[8:1],,4,3,5,1h[16:3],7bh[8:1],,5,6,2,8b,{64}B8,C,B4,A4f,,,,,{16}2v5[16:1],,4,3,25,,6h[8:1],,8v3[16:1],,7,1,83,,2h[8:1],,4v7[16:1],,3,5,74,,8h[8:1],,1v4[16:1],,8,2,1,,3h[8:1],,5-7-1[8:1],,1v6[16:1],1,2h[8:1],,,,4-2-8[8:1],,8v3[16:1],8,7-5-3-1-7[2:1],,,,7,,,,7x-5-3-1[4:1]*-5-3-1[4:1],,,,1bx-7-5b[8:1],,,,,,4,,3,,2,,1-6[8:1],,6-2-4[4:1]/8,,5,,4,,5h[8:1],,,,7v4-6-8[4:1]/8,,1,,7/2h[16:6],,,,,,,,28,37,4/6-2[16:1],,2,,1,,8w4[16:1],,,,8b,,6x/2x,,,8v3[16:1],7h[16:3],,,8,,6,5h[16:3],,1,1,3,3,4,6,8,7,1b/5b,,1/5<1[4:1],2/6<2[4:1],3h[8:1]/7$,,5,,3,4,5,6,7,8,1h[8:1],,7b,,3,4,3,5,1b,,6,5,6,4,8bp4[16:1],,12,,8b,,1,2,3h[8:1],,7,6,5h[8:1],,4>2<8[4:1],,,,8>2>4[4:1],,,,7,,6,,5h[8:1],,{32}A6,A7/B7,A8,A1/B1,A2,A3/B3,A4,A5/B5,Cf,,,{16}1bx/8bx,,2x/4x,,7x/5x,,1x/8x,,1x/8x-5[16:1],,,,83,4h[32:3],{32},{16},,12,,6,5,6,,2h[8:1],,8,3,6,5,7,1,8,,1,2,3-7[16:1],,,,3b/7,,6,5,4-8[16:1],,1b,,,,2,,3b/7b,,5b/6b,,4b/2b,,6bh[16:5]/8b,,1,1,,2,{32}2/5w1[16:1],4,3,2,1,8,7,6,5b,
