&title=Swan Song
&artist=void(Mournfinale)
&first=0
&des=Attiesal
&lv_5=14
&inote_1=
&inote_5=(148)
{4},,
E4,B6,{16}2xh[16:2],,5x,2xh[16:2],,6x,
2xh[16:2],,7x,,,1xpp4>7[4:4],,,,,
{4},,,,
5h[8:3],{8},2h[8:3],,,{12}E8,E7,E6,{4}B4/E4,B6/E7,B2/B3,B7/B8,
{8}1,{16}E8,E7,{8}1,{16}B7,B6,{8}1,{16}E7,E6,{16}1,2,3,,
{8}8,{16}E3,E4,{8}8,{16}B2,B3,{8}8,{16}E2,E3,{16}8,7,6,,
{16}E2,,,E8,,,E1,,E6,,,E4,,,E5,,{4}Ch[4:2],{8},{24},E8,B7,{4}B6,
{16}1,2,3,4,5>1[8:3]/6h[12:2],,,,6h[4:1],,,,,,7,8,
1,2,3,4,5>1[8:3]/6h[12:2],,,,{4}6h[4:1],{8},7h[8:2],,,
{8}1,{12}5,3h[12:2],,{8}8,{12}4,6h[12:2],,{8}1,{12}5,3h[12:2],,{8}7h[8:1],
{16}2,4,3,7,5,6,4,5,3,6,2,5,
{4}3h[4:1],{16}7,6,5,4,3h[16:3],,,2h[16:3],,,1,,8,4,6,5,,,1,5,3,4,,,1x/8x,2x/7x,3x/6x,,
{4}4h[4:1]/5h[4:1],{32},3x,2x,1x,8x,7x,6x,5x,{4}4bh[4:1],{16},,8,7,
1/6h[16:2],,,8/7h[16:2],,,6h[16:1]/7,,1h[16:2]/8h[16:2],,,2h[16:2]/3h[16:2],,,1pp4>7b[16:13]/2,,{4}1/8h[4:4],,,,
{16}6x,5x,4x,3x,7x,6x,5x,4x,8x,7x,6x,5x,1x,8x,7x,6x,
{4}2h[8:7],,,{8},{24}8,7,6,{4}5w1[8:5],,,,
{4}8xh[16:3]/2x,{16}8h[16:3]/3,,,3,8h[16:3],4,4,,8h[16:3]/3,,,2,8h[16:3],1,2,3,8h[16:3]/4,,,4,8h[16:3],3,3,,8h[16:3]/2,,,,1h[16:3],8,8,,1h[16:3]/7,,,7,1h[16:3],6,6,,1h[16:3]/6,,,7,1h[16:3],8,7,6,5/1h[16:3],,,6,C,,,E8/E7/E2/E3/B7/B2,,,,,
8b-5[8:1]/2,,,,8-3[8:1]/3,,,3,8-4[8:1],4,4,,8-6[8:1]/2,,,2,8-3[8:1],3,3,,8-5[8:1]/1,,,1,8-4[8:1],2,2,,1-6[8:1]/8,,,,1-4[8:1],5,5,,1-5[8:1]/7,,,7,1-3[8:1],8,8,,1,,{24},E8,E1,{8}E2,{16},B3,,,C,,B6,,,,8,7,1,6,8b/7b,,{24}78,16,25,{8}34,2-5-3-1[16:4],17,2,7v4[8:1],6,7/2x-5[8:1],1,8-4[8:1]/2,7,1-5[8:1]/8,2,1/7-3-7[16:4],6,7<1[8:3]/1,1h[4:1],,,,3h[8:1],7h[8:1],1,8,{16}2,3,4h[8:1],,8,7,6h[8:1],,1,2,3h[8:1],,7,6,5/4qq1[16:7],,3,,45,,6h[16:4],,,,,,{8}7<2[8:3],8,1,2>7[8:3],1,1h[4:1],,,2,2,
{16}3,4,3,4,3,,6,5,6,5,6,,45,,45,,2-5[12:1],1,3,1,2,,7-4[12:1],8,6,8,7,,{32}E1,E2,E3,E4,E5,E6,E7,E8,
{16}1x,,2,4,1,,2,4,1,,2,4,1,,2,4,{8}3h[8:1],B8,6h[8:1],B1,2h[8:1],B6,7h[8:1],B3,{16}8,,7,5,8,,7,5,8,,7,5,8,,7,5,{8}6h[8:1],B2/E2,3h[8:1],E7/B7,{16}8-4[8:1],1,,1,8,,,,
{8}56,6,67,7,78,8,81,1,12,2,23,3,34,4,45,5,{16}4,5,4,5,4,5,4,5,2,7,3,6,1z5[8:4]/1s5[8:4],8,2,7,{4}1,,,Ch[8:1]/B7/B6/B2/B3,
{8}A7,A8,A1,A2,,6h[4:1],,5h[4:1],,4h[4:1],,3h[4:1],4,5,6,3,A6,A5,A4,A3,,7h[4:1],,8h[4:1],,1h[4:1],,2,{24}8,7,6,8,7,6,8,7,6,8,7,6,
{8}E1,E8,E7,E6,,8h[4:1],,7h[4:1],,6h[4:1],,5h[4:1],4,3,2,1,E2,E3,E4,E5,,A8/B8,,A7/B7,,A6/B6,,C,A5/B5,,
{16}1>1[4:2],7,3,5,1,,,,1>1b[4:2],,,,Cf,,,,1>1[4:2],,,,Cf,,,,1,,,,6,2,,,8<8[4:2],4,,,{4}8,8<8b[4:2],Cf,8<8[4:2],Cf,8,{16}4,6,4,7,5-3-1-7-5[4:2],7,5,6,{4}5,5-3-1-7-5b[4:2],Cf,5-3-1-7-5[4:2],Cf,5,C,{16}2/4-6-8-2-4[4:2],3,,,{4}4,4-6-8-2-4b[4:2],Cf,4,,,,,
{64}1b-5[3.648##0.1]/8b-4b[3.648##0.1],27,36,45,{16},,,{4},,,
{16}27,,{24}3,4,3,{16},{24}6,5,6,{16},3,3,3,3,7,7,7,7,{4},1b/8/Cf,
{16}1,5,3,4,2,6,4,5,1bh[8:1],,{32},25,36,47,{16}58,,7,5,8,2,5,3,6,,,,3,4,3,2,3,,6,5,6,7,6,,{24}8xh,1xh,2xh,3xh,4xh,5xh,
{16}7h[16:2],,1,8h[16:2],,2,6h[16:1],,1,7,3,5,2,8,4,6,{8}78,78,12,12,34,34,56,56,{16}3,7,2,6,1,5,8,4,{32}15,26,37,84,5,6,7,8,1,2,3,4,5,6,7,8,{16}1b,5,3,4,3,,8b,4,6,5,6,,1,5,3,4,2h[16:2],,5,3h[16:2],,7,4h[16:1],,8,2,7,4,6,3,8,1,
{16}7bv4[12:1],3,6,5,7,,2bv5[12:1],6,3,4,2,,{16}7,3,5,4,8bh[8:1],,{32},47,36,25,{16}14,,2,4,1,7,4,6,3,,,,
2-5[12:1],1,3,1,2,,7-4[12:1],8,6,8,7,,{24}8h,1h,2h,3h,4h,5h,{16}7h[16:2],,1,6h[16:2],,2,5h[16:1],,3,4,2,5,3,4,2,5,
1/6h[4:1],2,3,4,5,,8/3h[4:1],7,6,5,4,,{24}1x,2x,3x,8x,7x,6x,
{16}4h[16:1]/5h[16:1],,,4h[16:1]/5h[16:1],,,4h[16:1]/5h[16:1],,
{4}B3,B7,{16}2h[16:2],,5,2h[16:2],,6,2h[8:1],,7,,,1,,,8h[8:1],,{24}1,8,1,8,1,8,1,8,1,8,1,8,{16}1,8,1,8,1,8,1,8,{4}1,{8},7,,,{12}E2,E3,E4,{4}B5/E6,B3/E3,B7/E8,E2/D2,{16}8h[8:1],,E2,E3,8h[8:1],,B2,B3,8h[8:1],,E3,E4,{16}8,7,6,,1h[8:1],,E7,E6,1h[8:1],,B7,B6,1h[8:1],,E8,E7,1,2,3,,
{16}E8,,,E2,,,E1,,E4,,,E6,,,E5,,{4}Ch[4:2],{8},{24},B1,B2,{4}B3,
{16}8/2-6b[12:1],7,6,5,4<8[8:3]/2b/Cf,,,,{4}3,3,{16}1/7-3b[12:1],2,3,4,5>1[8:3]/7b/Cf,,,,{4}6,6,7,
{48}1b,2x,3x,,,,{12}5,3h[12:2],,{48}8b,7x,6x,,,,{12}4,6h[12:2],,{48}1b,2x,3x,,,,{12}5,3h[12:2],,{8}7h[8:1],
{16}4,6,3,5,2,4,1,8,2,7,5,6,{4}4h[4:1],{32}7,6,5,4,3,2,1,8,{4}7-4b[12:1]/3-8[12:1],37`Cf,{16}1,5,3,4b,,,8,4,6,5b,,,1b,8b,2b,7b,4h[8:1]/6h[8:1],,,,{24}4qq1b[8:3]/6,3,2,18,7,6,{4}4b/5,{8},{16}7,6,5h[16:2]/B2f,,,3h[16:2]/B8,,,7h[16:1]/B4,,2h[16:2]/B6,,,8h[16:2]/B3,,,4h[16:1]/B7,,28,,{24}28,37,46,{16}5b,,,,1,5,2,6,3,7,4,8,3,7,2,6,1,5,8,4,{24}1,2,3,7,6,5,8,1,2,6,5,4,
8,4,8,4,8,4,{4}Cf/B2/E3/B6/E7,{16}2b,5,8b,4,1b,6,3b,7,2bh[16:3],,{32}7,6,5,4,{16}2,3,2,3,{32}2b,3,4,5,6,7,8,1,{24}5,1pp4>7[4:4],5,1,5,1,5bh[4:4],
