&title=Seventina
&artist=はるまきごはん
&first=0
&des=Parallel in 16 vs Parallel in 17
&des_1=Parallel in 17
&des_4=
&des_5=Parallel in 17
&des_6=Parallel in 16 vs Parallel in 17
&lv_1=1
&lv_4=1
&lv_5=13
&lv_6=13
&inote_1=(190){4},,8-6[8:1]/1-6[8:1],8-3[8:1],
{1}8,
,,{8}E2,
E2,{4}E2,{8}E2,1,1,1,
{4}1/2,{8}1/2,1,{4}2,{8}1,1,
{4}2,2,{8}2,1,1/2,1,
{4}1/2,{8}1/2,1,{4}2,{8}1/2,1,
{4}2,2,{8}2,1,1,1,
{4}1,{8}1,1,{4}2,{8}1/2,1,
{4}2,2,{8}2,1,1,1,
{4}1,{8}1,1,{4}2,{8}1,1,
{1},{4}1,
{8}1/8,8,{4}8/1,{8}1/8,8,
,8,,8,8,8,8,8,
{4},{8}8,8,{4}8,{8}8,8,
,8,,8,{4}8,{8}8,8,
8,{4},{8}8,8,8,8,8,
{4},{8}8,8,,8,8,E8,
8,8,8,8,,8,,8,
1,1,1,1,{4}1,{8}1,1,
{4}1b,{8}1,1,{4}1,{8}1,1,
,1,,1,1,1,1,1,
{4},1,{8}1,1,1,1,
,1,,1,{4}1,{8}1,1,
1,{4},{8}1,1,1,1,1,
{4},{8}1,1,,1,1,1,
1,1,1,1,,1,,1,
,2,2,2,2,2,{4},1,
1,{8}1,1,,1,
2,2,2,2,2,2,2,2,
8,8,8,8,8,8,8,8,
8,8,,8,{4}8,8,
1,1,{8}1,1,,1/2,
,2,2,2,3,3,3,3,
8,8,8,8,8,8,8,8,
8,8,8,8,8,8,8,8/1,
{4},{8}1,1x,,1,1,1x,
,1/2h[1:1],{4}1,{2},{8}8,
8,,8,{4},{8}8,8,
{4},{8}8,8,,8,8,8,
8,8,8,8,{4}8,{8}8,8,
,8,{4},,,{8}8,
8,,8,{4},{8}8,8,
,8,{2},{4}8,
8,{8}8,8,8,8,8,8,
,8,,1,1,1,{4}1,
{8}8,8,1,8,{4},{8}8/1,8,
{4},{8}8/1,8,{4},1,
8,{8}1,8,{4},{8}8,8,
8,8,8,8,,8,8,8,
,8,8,8,,8,8,8,
,8,8,8,,8,,8,
{4}8,8,8,{8}8,8,
,8,{4},{8}8,8,,8,
{4},{8}8/1,1,{4},{8}1,1,
,,,,,1,1,1,
{4}1,{8}1,1,{4},{8}1,1,
,,,,,1,1,1,
{4}1,{8}1,1,{4},{8}1,1,
,,,,,1,1,1,
{4}1,{8}1,1,{4},{8}1,1,
1,{16}1,1,{8}1,1,1,1,{4}1x,
1,{8}1,1,,1,{4}1,
{8}1,1,,1,{4}1,1,
1,{8}1,1,,1,{4}1,
{8}1,1,,1,{4}1,1,
1,{8}1,1,,1,{4}1,
{8}1,1,,1,{4}1,1,
1,{8}1,1,,1,{4}1,
{8}1/D1,{16}1,1,{8}1,1,1,1,1,1/8,
{4}8,8,8,{8}8,8,
,8,,8,8,8,{4}8,
{8}8,8,8,8,8,8,8,8,
8,8,{4}8,{8}8,1,{4}1,
{8}8,8,8,8,8,8,8,8,
8,8,{4}8,8,{8}8,8,
{4}8,{8}8,8,{4}8,8,
8,{8}8,1,1,1,{4}1,
1,8,{8}1,8,,8/1,
,1,1,1,2,2,2,2,
8,8,8,8,8,8,8,8,
{4}8,8,8,8,
8,8,{8}8,8,,8/1,
,1,1,1,2,2,2,2,
{4}8,{8}1,8,,8,,8,
8,8,8,8,8,8,8,8/1,
,1,1,1x,,1,1,1x,
,1,1,1,{2},{8}8,
8,,8,{4},{8}8,8,
{4},{8}8,8,,8,8,8,
8,8,8,8,{4}8,{8}8,8,
,8,{4},1,1,
{8}8,8,,8,{4},{8}8,8,
,8,{2},{4}8,
8,{8}8,8,8,8,8,8,
,8/1,{4},1,1,
{8}8,8,1,8,,8,{4}1/8,
,{8}1/8,8,{4},1,
{8}8,8,8,8,{4}8,{8}8,8,
8,8,8,8,,8,8,8,
,8,8,8,,8,8,8,
,8,8,8,,8,8,8,
{4}8/1,1/8,8/1,{8}8,8,
,8/1,{4}1,{8}8,8,,8,
{1},,1,
,1,
,1,
{16}1/2,1,{8}1,{4}2,{8}2/8,8,2/8,8,
8/2,8,8/2,8,,8,8,8,
8,8,8,8,,8,{4}8,
{8}8,8,8,8,8,8,8,8,
{4}8,{8}8,8,,8,8,8,
8,8,8,8,,8,,8,
8,8,8,8,,8,,8,
8,8,8,8,8,8,8,8,
,8,,,,8,8,8,
{4}8/1,8,8,8,
8,8,8,8,
{8}8,8,8,8,{4}8,8,
{8}8,{2},{8}8/1,8/1,8,
{4}8,8,8,8,
8,8,{2},{4}1x,
1x,{8}8,8,8,8,
8,8,8,8,8,8,8,8,
8,1,1,{16}1,1,{8}1,1,1,1,
{2}1/8,8,
{4}1/8,1,2,{8}1/2,2,
,,,,,2,2,2,
{4}2,2,2,{8}2,2,
2,2,{4}2,{8},2,2,2,
,2,2,2,,2,2,2,
,2,2,2,,2,2,2,
{4}2,2,{8}2/1,1,{4}1,
{8}2,1,{4}1,{2}1,
{8}1/8,8,,8,{4},{8}8,8,
{4},{8}8,8,,8,8,8,
8,8,,8,{4},{8}8,8,
{4},{8}8,8,{4}1,1,
8,{8}8,8,{4},{8}8,8,
,8,,,,8,8,8,
{4}8,{8}8,8,{4},{8}8,8,
,8,{4}8,1,1,
{8}8,8,,8,{4},{8}8,8,
{4},{8}8,8,,,,8,
{4}8,8,8,{8}8,8,
,8,8,8,,8,8,8,
,8,8,8,,8,8,8,
,8,8,8,,8,8,8,
{4}8,8,8,{8}8,8,
,1/8,{4}1,{8}8,8,,8/1,
{4},{8}1,1,{4}2,{8}1,1,
{2},{8}2,1,1,1,
{4}1,{8}1,1,{4},{8}1,1,
,,,,,1,1,1,
{4}1,{8}1,1,{4},{8}1,1,
,,,,,1,1,1,
{4}1,{8}1,1,{4},{8}1,1,
,{16}1,1,{8}1,1,{4}1,1x,
1,{8}8,1/8,{4}8,{8}8/1,8,
,8,1,8,8,8/1,8,8,
{4}1,{8}1,1,,1,1,1,
,1,,1,{4}1,1,
1,{8}8,8,{4}8,{8}8,8,
,8,,8,8,8,8,8,
2,2,2,2,,1,1,1,
E
&inote_4=(125){4},
E
&inote_5=(190){4},,,,,,,,,,,,,,,,{8}B7/B6,
B2/B3,{4}C/B5/B4,{8},1/2,2,2,
{4}8/2,{8}1/8,8,{4}7,{8}7/8,6h[8:5],
{4}7,3,{8}4,5,4,6,
{4}5/4,{8}3/4,3h[4:1],{4}4,{8}6/5,6h[4:1],
{4}5,2,{8}7,1,1,6,
{4}6/2,{8}1,1,{4}7/1,{8}2,2,
{4}2/1h[4:1],2,{8}4/7,6,6,5,
{4}4/6,{8}5h[8:5],4,{4}3,{8}2q5[4:3],2qq6[8:5],
{1},{4}3/6,
{8}4/5,5,{4}5/4,{8}4,5,
,5/3h[4:1],,5,4,4,3,2,
{4},{8}8/1,1,{4}8/1,{8}1/2,1/2,
,3/1h[8:5],,4,{4}3,{8}2,2,
8/3,{4},{8}6,4,4,5-8[8:1],5,
{4},{8}3-6[8:1],3,,8,7,6,
8,8-2[8:1],8,8-6[8:1],,8>6[8:7],,8,
{1},{4}2x/7x,
{8}1/8,2,{4}3,{8}1,1,
,3h[4:3],,2,4,4,5,5,
{4},5/6,{8}6,6,1,5/1-4[8:1],
,1/5-8[8:1],,5/3,{4}4,{8}1,8,
7-3[8:1],{4},{8}4,2,2,3,3h[8:3],
{4},{8}1,2,,3/4,3/4,3/4,
2,5,2,5pp7[8:1]*qq3[8:1],,5w1[8:3],{4},,,,,1/8-6[8:1],
1/8-2[8:1],{8}3/8qq3[8:5],3,,Cf,
{2},{8}E8,B8,B1,E2,
6,3,6,3,7,2,7,2,
8/1,8p4>3[4:1]/1q5<6[4:1],,8/1,{4},7x/2x,
8/1-3[8:1],8/1-7[8:1],{8}6/1pp6[8:5],6,,Cf,
{2},{8}E4,B4,B5,E6,
4,4,5,5,6,6,7,7,
8,8,1,1,{4}8/1,{8}2,1x/3x,
{4},{8}7,8x/6x,,4,4,3b/5b<6<7>8>1>2>3<4b[8:5],
,1h[8:5],{4},,,{8}1/8,
8/1s5[16:3],,1,{4},{8}8/7-4[8:1],7,
{4},{8}1/2-5[8:1],2,,8,7,6,
2-7[8:1],2,5-1[8:1],5,{4}5,{8}8,8pp3[8:5]*qq5[8:5],
,8,{4},,,{8}1/2h[2:3],
1,,3,{4},{8}3,1>6[8:3],
,1,{2},{4}8,
8h[8:7],{8}7,7,1,1,2,3p1[8:3],
,8/3,{4},B7/B6,B2/B3,
{8}6/4,6/4,5h[8:3],3h[8:3],{4},{8}4h[8:3],2h[8:3],
{4},{8}3<6[4:1],3>8[16:3],{2},{4}1/8-4[8:1],
{8}8,1,{4},{8}5,5,
3>8[8:1],8<5[8:1],,,,7-3[8:1],7,7x,
,4-8[8:1],4,4x,,7-4[8:1],8,7x,
,2-5[8:1],1,2x,,6/3,,7,
8x/3x,2,{4}1x/6x,{8}8x/1x,8/1,7x/2x,6/3,
,E7/B7/B6/A7/D7/A6,{4}B2/B3/E3/A2/D3/A3,{8}8>7[8:25],8V25b[4:1],,8bx,
{1},,,{4},,{8},1,
8V25[4:1],2,
{4}2,{8}3V16[4:1],6,{4},{8}8v3[4:1],8v5[8:1],
,,,,,8,1>5[4:1],7,
{4}7,{8}6q3[16:3],2,{4},{8}1<3[4:3]/2s6>3[4:3],2/1,
{1},1h[4:7],
{2},Ch[4:1],
{4}1/7h[4:7],1,{8},1,{4},{8}1,
{4},{8}1,{4}1,1,
3/5h[4:7],{8}3,3,,2,{4}2,
{8}1,1,,8v3[8:1],{2}8,
{4}2/7h[8:7],{8}4,4,,3>6[2:3],3>6[8:11],3x>6[4:5],
{1},{4}3>6[8:1],
3x,,{8}6/4,5,
,2h[8:5],,4,3,3,{4}4,
{8}5,6,7,8/4,3,2q4[2:1]/7p5[2:1],{4}2/7,
{8},,,,,B1/E2/B2,{4}B1/E2/B2,
{8}8,8,3,3,5,5,2,1,
8-2[8:1]/7-5[8:1],8/7,{4}8-4[8:1]/7-3[8:1],8/7,{8}2-6[8:1],2,
{4}1x/2x,{8}5/4-8[8:1],4,{4}4x/5-1[8:1],5x/4x,
4/3,5p6[8:3]/6q5[8:3],{2},{4}1>3[8:1],
8/1q5[8:1],{8}1/8qq3[2:1],8,,Cf,
{2},{8}E4,B3,B2,E2,
7/1,7,7,7,3/5,3,3,3,
{4}8<5[8:1],8>3[8:1],8q5[8:1]*p3[8:1],8x,
1/8<6[8:1],8p4[8:1],{8}8/1pp6[2:1],1,,Cf,
{2},{8}E8,B7,B6,E6,
{4}5/4,{8}7/2,7/2,,8,,3-7[8:1],
3,5v2[8:1],5,3,3,3-6[8:1],8,8/3bx,
,1-4[8:1]*q5[8:1],1,1bx,,7-3[8:1],7,7bx,
,8>1>2>3<4<5[2:1],8,8bh[8:5],{2},{8}7,
7,,1-5[8:1],{4},{8}8,8-4[8:1],
{4},{8}3,2p6[8:1],,8,7,7,
8,1,8,1,{4}8,{8}1>4pp8[8:7]/7<4qq8[8:7],1/7,
{1},{8}7-4[8:1],
7,,8,{4},{8}5-2[16:3],5-8[8:1],
{4},,,5/6,
4/5,{8}5,5,6,2,7v6[4:1],3v2[8:1],
{2},{4}B1/E2/B2,B6/E6/B5,
{8}6h[8:1],4h[8:1],7h[8:3],3h[4:1],{4},{8}4/8,4xh[4:1]/8xh[4:1],
{4},{8}1>2-7[4:1]/5<6-3[4:1],1x/5x,{2},{8}2x-6[8:1],
2,2x/8x-4[8:1],8,{4}8x,{8}6pp4[16:7]/3qq5[16:7],3/6,
,,,,,3-7[8:1],7,3x,
,8-4[8:1],4,8x,,1-3[8:1]*-5[8:1],1,1x,
,6-3[8:1]*-1[8:1],6,6x,,8/2,8/2,1,
1x/8x,7/2,{4}3x/6x,{8}3x/5x,3/5,4x/6x,4/6,
,8x,{4}8x,{8}4/7,7>8-5[8:17]/4-2<8b[8:17],,7x/4x,
{1},,,,4h[1:2]/5h[1:2],
,,{4}8,
8,{8}7,7,4,4,
6,6,2,2,,8,7,1,
8/1,8,1/8,1,,7v1V35[8:9],{4}7,
{8}8,8,8,8,8,8,1,1,
{4}2,{8}6/3,6/3,,3,4,2,
3/4,3,3/4,3,,4,,5,
5/4,5,5/4,5,,3q1<5[4:5],{4},{8}E7,
E8,E7,E8,C,E7,C,E7,
,8x,,,,6,3,6,
{4}A8/D8/E8/B7/B6/E6/A6/D6/A5/A7,A1/D2/A2/B1/A3/D4/B4/A4/C/D3/E3/B3,A8/D8/E8/B7/B6/E6/A6/D6/A5/A7,E1/A1/D2/A2/D3/A3/D4/A4/D1/C/B1/B4,
D8/A8/D1/E1/B8/B7/B6/E6/D6/A5/D5/A7,A1/A4/D2/A2/D3/A3/D4/E1/E5/B1/B4/B2/B3,8x/1x,4x/5x,
{8}8v5[8:1],8,3v1[8:1],3,{4}3,6V41[8:3]*V83[8:3],
{8}6,{2},{8}7,2,7,
{4}6xh[4:3],D8/A8/D1/E1/B8/B7/B6/E6/D6/A5/D5/A7,A1/D2/E2/B2/B3/E4/A4/D4/A3/A2,3xh[2:1],
D1/A1/D2/A2/C/B4/B5/E5/A4/B1/B2,D8/A8/D1/E1/B8/B7/B6/E6/D6/A5/D5/A7,{2}6pp3[2:1],
{4}1x,2x,{8}2,4,3,5,
4/6,4/6,8,3,2/1,1/2,3,8,
8,7,7,{16}2,3,{8}4,5/6,4/7,3/8,
{4}1xV73-5[8:3]/2xV48-6[8:3],{2},{4}2>1[24:5],
2x,{32}2x,3x,4x,5x,6x,7x,8x,1x,{4}2x-6V48[2:1],{8}1/2,1h[8:3],
,,,,,8/3,3,7,
{4}2v5[8:1],2/7v4[8:1],7/3>7[4:1],7qq4[2:1],
{8}A7,A8,{4}A1,{8},2-4[16:1]*-5[8:1],4x-6[16:1],2,
,7-4[8:1]*-5[16:1],5-3[16:1],7,,2-8[8:1]*-7[8:1],2,2,
,6-3[8:1]*-4[8:1],6,6,,1,8/1,1/8,
{24}7,6,{12}5,,{24}2,3,{6}4,{24}6/3,{12},{24}2/7,{12},{4}2/7,
{8}6h[2:1],5,{4}5h[4:1],{16},{32}7x/4x,8x/3x,{8}1x/2x,{4},{8}3/6,
4-1-6[1:1]/5-8-3[1:1],,5/4,,,,,,,,,,7h[4:1],
4,4h[8:3],
6<3[16:7],6q3[16:5],{2},{8}4,5<8[8:1],
{4},{8}1,1>4[8:1],{2},{4}7/2,
{8}6<8-2[6:1],4,{4},{8}3>1-7[6:1],8,
,6V42[8:1],,,,8,8,5h[8:3],
{4}1,{8}2-4[8:1],2,{4},{8}6,7h[8:5],
,2,{4}3h[2:1],E8/E7,E3/E4,
{8}8/1,1/8,2h[8:3],7h[8:3],{4},{8}3h[8:3],6h[4:1],
{4},{8}5s1[4:1]/4z8[4:1],5/4,,,,7,
{4}6/1,8/2,{2}5h[8:1]/3<1[2:1]*q1[2:1],
{8},,,,,8-3[8:1],{4}3-8[8:1],
{8},2-6[8:1],{4}6-2[8:1],{8},8-4[8:1],{4}4-2[8:1],
{8},1-6[8:1],{4}6-4[8:1],{8},8,8,7/4,
2bx,5/2,7bx,7/4,8,1,2,3/4,
,7x,{4}7x,{8}2<7-3<6[2:3],6>3-7>2[8:11],{4},,,,,,,{8}1/8,
2,1/3,2,
{4}3/4,{8}4/5-1[8:1],5,{4},{8}2h[2:1]/3>5[8:3],3,
,,,,,6,7/5,6,
{4}4/5<1[8:1],{8}2-6[8:1],2,{4},{8}8/7>5[8:3],7/8h[8:3],
,,,,,4,3-8[8:1]/5-8[8:1],3/5,
{4},{8}1v4[8:1]/7v4[8:1],1/7,{4},{8}1V35[2:1]/5V71[2:1],1/5,
{1},{4}Ch[8:15],
{8}E8,B7,{4}B6,{8}B5,B4,
,E4/D4,,B3,B2,B1,B8,E8,
1h[4:7],{2},{8}8,8,8,
,8,,8,{4}8,8,
Ch[8:15],{8}E4,B3,{4}B2,{8}B1,B8,
,E8/D8,,B7,B6,B5,B4,E4,
B8/B1,B7/B6,B2/B3,C/B5/B4,,1x/8x,1x/8x,2bx/7bx,
E
&inote_6=(190){4},,,,,,,,{1}Ch[1:2],
,{8}B7/B6,
B2/B3,{4}C/B5/B4,{8}1/2,1/2,8,8,
{4}7/1,{8}1/7,7,{4}6/5,{8}6/5,6h[8:5],
{4}5,7,{8}5,4,3,3,
{4}2/4,{8}4/2,2,{4}1/8,{8}1/8,1h[8:5],
{4}8,2,{8}7,7,8,1,
{4}8/2,{8}8/2,2,{4}3/4,{8}3/4,3h[8:5],
{4}4,2,{8}4,5,6,6,
{4}4/7,{8}2/5h[4:1],3,{4}4,{8}7pp3[4:3],7p4[8:5],
{1},{4}3/6,
{8}4/5,5,{4}5/4,{8}4,5,
,3/6<2[8:3],,4,{4}4,3,
3,{8}1/8,8,{4}8/1,{8}1,8,
,7/2>6[8:3],,8,{4}8,7,
7,4h[8:1]/6h[8:1],{8}3,3,5-8[8:1],5h[8:1],
{4},{8}4-1[8:1],4h[8:1],,8,{4}7,
8,{8}7,8-6[8:1],,8>6[8:7],,8,
{1},{4}2b/7b,
{8}1,2,{4}3,{8}5/2,6,
,3h[8:5],,5,{4}6,4-7[8:1],
,8/1,{8}8,7,6,1,
,1,,8,{4}1,{8}2,3,
4-1[8:1],{4},{8}6,7,7,8-4[8:1],8h[8:1],
{4},{8}1-5[8:1],1h[8:1],,6,{4}7,
{8}8,1,1,8w4[16:3],,8>8[4:3]*<8[4:3],{4},,,,,1/8-6[8:1],
1/8-2[8:1],{8}3/8qq3[8:5],3,,Cf,
{2},{8}E8,B8,B1,E2,
6,3,6,3,7,2,7,2,
8/1,8p4>3[4:1]/1q5<6[4:1],,8/1,{4},7x/2x,
8/1-3[8:1],8/1-7[8:1],{8}6/1pp6[8:5],6,,Cf,
{2},{8}E4,B4,B5,E6,
4,4,5,5,6,6,7,7,
8/1,1,2/8,2,8/3,3,1,8xh[8:1]/2xh[8:1],
{4},{8}7,8xh[8:1]/6xh[8:1],,4,4,3b/5b<6<7>8>1>2>3<4b[8:5],
,1h[8:5],{4},,,{8}8,
1s5[16:3],8,1,{4},{8}7-4[8:1],8,
{4}7,{8}2-5[8:1],1,2,8,7,6,
2-7[8:1],2,5-1[8:1],5,3>8[8:1],3,7,7qq5<3[8:5],
,7,{4},,,{8}8/7h[2:3],
8,,6,{4},{8}6,8<3[8:3],
,8,{2},{4}1,
1h[8:7],{8}2,2,8,8,7,6q8[8:3],
,1/6,{4},B2/B3,B7/B6,
{8}3,5,2h[8:3],6h[4:1],{4},{8}5/1,5xh[4:1]/1xh[4:1],
{4},{8}8-3[8:1]/4-7[8:1],8x/4x,{4},2/6,
1/8-4[8:1],{8}8,1,,3,5,5,
3>8[8:1],8<5[8:1],{4}3,{8},7-3[8:1],7,7x,
,4-8[8:1],4,4x,,7-4[8:1],8,7x,
,2-5[8:1],1,2x,,6/3,,7,
8x/3x,2,{4}1x/6x,{8}8x/1x,8/1,7x/2x,6/3,
,E7/B7/B6/A7/D7/A6,{4}B2/B3/E3/A2/D3/A3,{8}8>7[8:25],8V25b[4:1],,8bx,
{2},,,,,,,{8}8/2,
1,8V25[4:1],2,
{4}2,{8}3V16[4:1],6,{4},{8}8v3[4:1],8v5[8:1],
{2},{8}7/1,8,1>5[4:1],7,
{4}7,{8}6q3[16:3],2,{4},{8}1<3[4:3]/2s6>3[4:3],2/1,
{1},1h[4:7],
{2},Ch[4:1],
{4}1/7h[4:7],1,{8},1,{4},{8}1,
{4},{8}1,{4}1,1,
3/5h[4:7],{8}3,3,,2,{4}2,
{8}1,1,,8v3[8:1],{2}8,
{4}2/7h[8:7],{8}4,4,,3,3,3x>6[8:5],
,,,,,,,3,
{4}3>6[4:1],3x,,{8}6/4,5,
,2h[8:5],,4,3,3,{4}4,
{8}5/3,6,{4}7,{8}4/6,3,{4}2q4[2:1]/7p5[2:1],
{8}7/2,{2},{8}B1/E2/B2,{4}B1/E2/B2,
{8}8,8,3,3,{4}5,{8}6,6,
{4}7/1-3[8:1],1/8-4[8:1],1/8,2-6[8:1],
1x/2x,8/7-3[8:1],7x/8-4[8:1],8x/7x,
5/6,3p4[8:3]/4q3[8:3],{2},{4}1>3[8:1],
8/1q5[8:1],{8}1/8qq3[2:1],8,,Cf,
{2},{8}E4,B3,B2,E2,
7/1,6,{4}5,{8}3/5,2,{4}1,
5<1[4:1],1>5[4:1],5,1,
1/8<6[8:1],8p4[8:1],{8}8/1pp6[2:1],1,,Cf,
{2},{8}E8,B7,B6,E6,
{4}5/4,{8}7/2,7/2,,8,1,2,
3-7[8:1],3,5v2[8:1],5,1>4[8:1],1,7,7bx,
,1-4[8:1]*q5[8:1],1,1bx,,7-3[8:1],7,7bx,
,1>2>3<4<5<6[2:1],1,1bh[8:5],{2},{8}7,
5s1[4:1],7,5,{4},{8}8-4[8:1],1,
{4}8,{8}2-5[8:1],1,2,8,7,7,
8/2,1,8,1,7,8,1/7,1>4pp8[4:3]/7<4qq8[4:3],
,1/7,{4},,,{8}2/1,
1/2-6[8:1],,1,{4},{8}5,5-8[8:1],
,5-2[8:1],{2},{8}3/4,5,
{4}4/5,{8}6,6,7,3,7v6[4:1],3v2[8:1],
{2},{4}B1/E2/B2,B6/E6/B5,
{8}6,4,7h[8:3],3h[4:1],{4},{8}4/8,4xh[4:1]/8xh[4:1],
{4},{8}1>2-7[4:1]/5<6-3[4:1],1x/5x,{2},{8}2x-6[8:1],
2,2x/8x-4[8:1],8,{4}8x,{8}6pp4[16:7]/3qq5[16:7],3/6,
,,,,,3-7[8:1],7,3x,
,8-4[8:1],4,8x,,1-3[8:1]*-5[8:1],1,1x,
,6-3[8:1]*-1[8:1],6,6x,,8/2,8/2,1,
1x/8x,7/2,{4}3x/6x,{8}3x/5x,3/5,4x/6x,4/6,
,8x,{4}8x,{8}4/7,7>8-5[8:17]/4-2<8b[8:17],,7x/4bx,
{1},,,,4h[1:2]/5h[1:2],
,,{4}8,
8,{8}7,7,4,4,
6,5,2,3,,8,7,6,
4,3,5,6,,6pp4[8:9],{4}6,
{8}1,2,{4}2,{8}2,2,{4}2,
3,{8}6/3,5/4,,3,4,2,
4,4,3,3,,4,,5,
4,5,4,5,,3qq4>1[4:5],{4}3,
{8}E7,E8,E7,E8,E6,E7,E6,E7,
,8x,,,,6,3,6,
{4}A8/D8/E8/B7/B6/E6/A6/D6/A5/A7,A1/D2/A2/B1/A3/D4/B4/A4/C/D3/E3/B3,A8/D8/E8/B7/B6/E6/A6/D6/A5/A7,A3/A1/D2/A2/D3/D4/A4/B1/B3/E3/D5,
D8/A8/D1/E1/B8/B7/B6/E6/D6/A5/D5/A7,A1/A4/D2/A2/D3/A3/D4/E1/E5/C,8x/1x,4x/5x,
{8}8v5[8:1],8,3v1[8:1],3,{4}3,6V41[8:3]*V83[8:3],
{8}6,{2},{8}7,2,7,
{4}6xh[4:3],D8/A8/D1/E1/B8/B7/B6/E6/D6/A5/D5/A7,A1/D2/E2/B2/B3/E4/A4/D4/A3/A2,3xh[2:1],
D1/A1/D2/A2/C/B4/B5/E5/A4/B1/B2,D8/A8/D1/E1/B8/B7/B6/E6/D6/A5/D5/A7,{2}6pp3[2:1],
{4}1x,2x,{8}2,4,3,5,
4/6,4/6,8/3,3/8,2/1,1/2,3,3,
2,7,6,{16}2/8,3,{8}4,5/6,4/7,3/8,
{4}1xV73-5[8:3]/2xV48-6[8:3],{2},{4}2>1[24:5],
2x,{32}2x,3x,4x,5x,6x,7x,8x,1x,{4}2x-6V48[2:1],{8}7/2,7h[8:3],
,,,,,8/3,3,7,
{4}2v5[8:1],2/7v4[8:1],7/3>7[4:1],7>4[8:3],
{8}6,5,{4}5,{8},2-4[16:1]*-5[8:1],4x-6[16:1],2,
,7-4[8:1]*-5[16:1],5x-3[16:1],7,,2-8[8:1]*-7[8:1],2,2x,
,6-3[8:1]*-4[8:1],6,6x,,1,8/1,1/8,
{24}7,6,{12}5,,{24}2,3,{6}4,{24}6/3,{12},{24}2/7,{12},{4}2/7,
{8}6h[2:1],5,{4}5h[4:1],{32},7x/4x,8x/3x,1x/2x,{8},,,3/6,
4-1-6[1:1]/5-8-3[1:1],,5/4,,,,,,,,,,7h[4:1],
4,4h[8:3],
6<3[16:7],6q3[16:5],{2},{8}4,5<8[16:3],
{4},{8}1,1>4[16:3],{2},{4}7/2,
{8}6<8-2[16:3],4,{4},{8}3>1-7[16:3],8,
,6-3[8:1],,,,8,8,5h[8:3],
{4}1,{8}2-4[8:1],2,{4},{8}6,7h[8:5],
,2,{4}3h[2:1],E8/E7,E3/E4,
{8}8/1,1/8,2h[8:3],7h[8:3],{4},{8}3h[8:3],6h[4:1],
{4},{8}5s1[4:1]/4z8[4:1],5/4,,,,7,
{4}6/1,8/2,{2}5h[8:1]/3<1[16:5]*q1[16:5],
{8},6/3,,8/1,,8-3[8:1],{4}3-8[8:1],
{8},2-6[8:1],{4}6-2[8:1],{8},8-4[8:1],{4}4-2[8:1],
{8},1-6[8:1],{4}6-4[8:1],{8},8,8,7/4,
2bx,5/2,7bx,7/4,8,1,2,3/4,
,7x,{4}7x,{8}2<7-3<6[2:3],6>3-7>2[8:11],{4},,,,,,,{8}1/8,
2,1/3,2,
{4}3/4,{8}4/5-1[8:1],5,{4}2,{8}2h[2:1]/3>5[8:3],3,
{2},{8}6,6,7/5,6,
{4}4/5<1[8:1],{8}2-6[8:1],2,{4},{8}8/7>5[8:3],7/8h[8:3],
{2},{8}4,4,3-8[8:1]/5-8[8:1],3/5,
{4},{8}1v4[8:1]/7v4[8:1],1/7,{4},{8}1V35[4:1]/5V71[4:1],1/5,
{1},{4}Ch[8:9],
{8}E8,B7,{4}B6,{8}B5,B4,
,E4/D4,,B3,B2,B1,B8,E8,
1h[4:7],{2},{8}8,8,8,
,8,,8,{4}8,8,
Ch[8:9],{8}E4,B3,{4}B2,{8}B1,B8,
,E8/D8,,B7,B6,B5,B4,E4,
B8/B1,B7/B6,B2/B3,C/B5/B4,,1x/8x,1x/8x,2bx/7bx,
E
