&title=Zzz
&artist=佐咲紗花
&first=0
&des=reflectW
&lv_5=12
&lv_6=11+
&inote_5=(154){1},{2},{8}7V15[8:3],,,5-3[16:3],,,,,3V51[8:3],,,1-7[16:3],,,,,
7V15[8:3],,,5-3[16:3],,,,1h[8:2],,7h[8:2],,4h[8:3],,,2,2,1-3[8:1],1,8-6[8:1],8,2-4[8:1],2,
6,6h[8:2],,1-6[8:1]*-4[8:1],,,,
{8},,,6h[8:2]/5,,4,3-8[8:1],,34,,,
3h[8:2]/4,,5,6-1[8:1],,65,,,
6h[8:2]/5,,4,3-8[8:1],,34,,7>1[8:2],,1>3[8:2],,3<5[8:2],,1,1,,
1-4[8:1]/2,,1,7<4[8:1],,7,,,
8-5[8:1]/7,,8,2>5[8:1],,2,,,
5-8[8:1]/6,,5,3>8[8:1],,3,5,7<5[8:2],,5>3[8:2],,3>1[8:2],,,4b,,
7-5[8:1],8,7,2>5[8:1],,2,7,7,5-8[16:4]*qq5[16:4],4,,,,,72,,
6-8[8:1],5,6,2-6[8:1],,7-1[8:1]/2,,2-6[8:1],,5-3[8:1],,2h[8:3],,,8,,
2-4[8:1],1,2,7<4[8:1],,7,2,2,3>8[8:1],5,3,5qq5[16:4]*pp5[16:4],,,,,7-5[8:1],7,2-4[8:1],2,8-4[8:1],8,1-5[8:1],1,5w1[8:2],,,,,,
7>1[8:1],7,3>1[8:1],,5,5-1[8:1],,5<8[8:2],,8>3[8:2],,3>7[8:2],,5h[8:5],,,7-3[8:1],7,7-5[8:1],,7,3-1[8:1],,8<5[8:2]/3,,5>2[8:2],,2>6[8:2],,1h[8:5],,,8,8,7h[8:4],,,4,3h[8:3],,,8-5[8:1],,1-4[8:1],,7-4[8:1],,3-8[8:2],,8-5[8:2],,5-2[8:2],,2-7[8:2],,7-4[8:2],,4qq8[8:4]*pp8[8:4],,,,,,,,
7<4[8:1],,73,2,1>4[8:1],,51,6,7<4[8:1],,73,2,1>4[8:1],,51,6,7-1[8:2],,1-6[8:2],,6-2[8:2],,2,,3-5[8:2],,5-2[8:2],,2-6[8:2],,7,7,8,2>5[8:1]/1,,2,7<4[8:1],,7-1[8:2],,1-5[8:2],,5-3[8:2],,2h[8:3],,,1qq5[8:3]*pp5[8:3],,1,,,,64,,7h[8:7],3-1[8:1],,3,,8-2[8:1],,8,,6,
6-1[8:2],,1-4[8:2],,4-7[8:2],,7-2[8:2],,2-5[8:2],,5-8[8:2],,8-3[8:2],,4,,5,5,64,64,73,73,82,82,1,8h[100:1],2h[100:1],7h[100:1],3h[100:1],5h[100:1],6h[100:1]/4h[100:1],,
{8}8<6[8:1],5-3[8:1],8>2[8:1],5,
8<6[8:1],3-5[8:1],8>2[8:1],3,
8<6[8:1],5-3[8:1],8>2[8:1],5,
8,3,{16}8,7,63,,
{8}1>3[8:1],4-6[8:1],1<7[8:1],4,
1>3[8:1],6-4[8:1],1<7[8:1],6,
1>3[8:1],4-6[8:1],1<7[8:1],4,1,6,{16}1,2,36,,
{8}8<6[8:1],5-3[8:1],8>2[8:1],5,
8<6[8:1],3-5[8:1],8>2[8:1],3,
8-4[8:1],4V68[8:1],8,2h[8:3],,1,
1>4[8:1],,1<6[8:1]/7,8,1>4[8:1]/3,2,1<6[8:1]/7,8,1>4[8:1]/3,2,7-1[8:1]/1,,5-1[16:2]*-3[8:1],,5,,
62,,8>3[8:1]/2,1,8<5[8:1]/6,7,8>3[8:1]/2,1,8<5[8:1]/6,7,2-8[8:1]/8,,6-2[8:6]*-4[8:6],6,,,,,,,,,,
,6b/2b,,7,1,6,2,5,3,4,4h[8:7],,,,,,,1-5[8:1],,1-7[16:3]/5-3[16:3],,,,
&inote_6=(154){1},
(77){4},{16}7z3[16:3],,,,,,,,7z3[16:3],,,,,,,,
7z3[16:3],,,,,,,1h[16:8],,,,,,,8v3[16:4]*<5[16:4],8,,,,,,,
,1,,2-5[16:1]/8-5[16:1],37,64,,
{16},,,6h[16:2]/4,,3h[16:3],6,,6,3,,
{16}3h[16:2]/5,,6h[16:3],3,,3,6,,
6h[16:2]/5,,4h[16:3],6,,6,4,6V41[16:3],6h[16:4],,,,,,,,
6h[16:2]/3,,2h[16:3],5,,5,2,,
3h[16:2]/6,,7h[16:3],4,,4,7,,
3h[16:2]/4,,5h[16:3],3,,3,5,3qq3[16:3]*pp3[16:3],,,,,,,,,
7^4[16:1],4-8[16:1],6,3,,,,,2^5[16:1],5-1[16:1],3,6,,,,,
7^4[16:1],4-8[16:1],6,3,,,,3h[8:1],,5h[8:1],,2h[16:3],,,8,,
7^4[16:1],4q8[16:1],6,3,,2,,,7p7[16:2]/3p3[16:2],,26,26,,,,,7-4[16:1],,2-5[16:1],,1>8[16:4]/7,,8h[16:2]/2,,1,,,,,,
7^5[16:1],5^3[16:1],5,,7,3,,4h[16:9],,6V48[16:3],,8,,6,,,,,
6h[8:1],,3,3,,5h[16:9],,3V51[16:3],,1,,3,,,,,7w3[16:1],,,,,,,8-4[16:1],,1-5[16:1],,8-6[16:1],,1-3[16:1],,8-4[16:1],,1-5[16:1],,8>8[16:4]*<8[16:4],,1,,8w4[16:2],,,,,,,,
7<4[16:1],,2,1,8>3[16:1]/7,,,,7<4[16:1]/8,,2,1,8>3[16:1]/7,,,,7-4[8:1]/8,,4-8[8:1],,8-3[16:2]/7,,3-6[16:2],,6-1[16:2],,2,3,4,,,,2>5[16:1],,7,8,1^6[16:1]/2,,8-4[16:1],,1,,8,,8,1pp5[16:4]*qq5[16:4],,,,1,,,,,,,6pp4[8:2]/3qq5[8:2],,,,,,,,,
6^8[16:2],,8^2[16:2],,2^4[16:2],,4^6[16:2],,6-8[16:2],,8-2[16:2],,2V86[16:3],,3,,3h[16:1],,4h[16:1],,5h[16:1],,6h[16:1],,1,7,2,8,3,5,6/4,,
{16}2,7-1[16:1],1-5[16:1],5-3[16:1],
,7,,,
2,7-1[16:1],1-5[16:1],5-3[16:1],
,7,,,
{16}1,5<8[16:1],1>4[16:1],6h[16:1],
,5,,6,
,4pp4[16:2]*qq4[16:2],4,4,,,{32},,,,
{16}2,7-1[16:1],1-5[16:1],5-3[16:1],
,7,,,
2,8,8,{48}1b,2,3,4,5,6,7,8,1,
{16}
,,6h[16:1]/4,3,2/5h[16:1],1,,2h[16:1]/8>7[4:1],7,6/1h[16:1],5h[16:5],,,,,,
{16}5,,1h[16:1]/8,7,6/3h[16:1],5,,1h[16:1]/8h[16:1],,,5h[16:1]/4,3,2/7h[16:1],
{48}1b,2,3,4,5,6,7,8,1,2,3,4,5,6,7,8,1,2,3,4,5,6,7,8,{16}1,,
,45,,8,1,7,2,6,3,5,26,,,6-3[16:6]/2-7[16:6],,,,,,,,,,,,
