&title=xoxo
&artist=葉月ゆら
&first=4.74
&des=Yaegaki
&lv_5=13
&inote_5=(127){4},,5/3h[4:1],4,
4/6h[4:1],5,1/7h[4:1],8,
8/2h[4:1],1,8/6h[4:1],7,
1/3h[4:1],2,5/7h[4:1],6,
4/2h[4:1],3,{8}7/2,8,{16}2,1,,3,
,5,{8}4,{16}6,5,{8},2/7,1,{16}7,8,,6,
,4,{8}5,{16}3,4,{8},7/2,3,{16}5,4,,6,
,1,{8}8,{16}2,1,{8},6/3,4,{16}6,5,,7,
,1,{8}8,{16}2,1,{8},{16}3,4,{8}2,1/8,{16}6,5,
{8}7,8/1,{16}3,4,{8}2,1/5,{16}6,5,{8}7,8/4,
{16}3,4,{8}2,{16}1,8,,2,{8}7,{16}3,6,,4,{8}5,
{16}5,4,,6,3,7,2,8,1,8,{8}1,{16}8,1,,1,
8,2,7,3,6,4,{8}5,2/8,1,7,7,
6,{16}6<1[8:1],5,,5,{8}6,{16}4>1[8:1],{8},{16}8,{8},7h[16:5],
{16}8,{8},{16}1,{8},2qq7[8:5],{4}2,4h[8:1],
5h[8:1],6h[8:1],{8}1/7,2,{16}3,4,,4,
,4,{8}5,{16}5,6,{8}4,7,3,3,2,
{16}2-5[8:1],1,,1,{8}2,8-5[8:1],{16}4,{8},{16}3h[16:5],{8},4,
{16}5,{8},{16}6,{8},7qq3[8:5],{4}7,8h[8:1],
1h[8:1],2h[8:1],7<5[8:1]/4>2[8:1],4/7V51[4:1],
{8}7/1,2,3,4,5/1,{16}8,4,{8}8,7/3,
{4}6-1[8:1]/2-5[8:1],6/2,{8}3/7,{16}6,5,{8}7,7,
1/8,{16}3,4,{8}2,2,1/8,{16}7,8,{8}6,1/5,
{4}7-4[8:1]/3-8[8:1],7/3,{8}2/6,{16}3,5,{8}2,2,
8/1,{16}6,4,{8}7,7,1/8,{16}3,3,{8}4,2,
{4}5/1>4[8:1],{8}1/8,8,7/3,{16}6,6,{8}5,7,
8/2,{16}3,3,{8}4,2,{4}2>4[8:1],5<7[8:1],
8>2[8:1],3<5[8:1],{8}1,1,{16}8,1,,2/7,
,3,{8}4,{16}6,5,{8},{4}8b-4[8:1]/2b-5[8:1],8/2-6[8:1],
2/7V58[4:1],{8}7/5,4,{4}3V14[4:1],{8}3/1,8,
{4}7h[8:1],{8}4-2[8:1]/7-4[8:1],2-5[8:1],{4}7/4,{8}8-2[8:1],7,
6-8[8:1],5,4,3,{4}2-5[8:1]/6-3[8:1],6-1[8:1]/2-7[8:1],
2v4[8:1]/6v4[8:1],6/2,4-2[8:1]/8-6[8:1],4/8-4[8:1],
8/2pp1[4:1],{8}2/8,7,{4}6pp5[4:1],{8}6/4,3,
2,1/7,3,1/7,5pp4[4:1],{4},{8}3,
3qq4[4:1],{4},{8}7,{4}7-3[8:1],7<4[8:1]/4-8[8:1],
7>2[8:1]/4-7[8:1],7/4,7-3[8:1]/1-5[8:1],1/7>2[8:1],
7/4V63[4:1],{8}6/4,7,{4}8V27[4:1],{8}8/2,3,
{4}4h[8:1],{8}5-7[8:1]/2-5[8:1],7-4[8:1],{4}2/5,{8}1-6[8:1],2,
3-8[8:1],4,5,6,{4}7-1[8:1]/2-6[8:1],2-5[8:1]/7-4[8:1],
7v1[8:1]/2v8[8:1],7/2,1-3[8:1]/5-7[8:1],5/1-5[8:1],
1/7qq8[4:1],{8}1/7,2,{4}3qq4[4:1],{8}3/8,7,
6,5/3,1,5/3,7pp5[4:1],{4},{8}2,
2qq4[4:1],{4},{8}6,6,3/5,{16}7,8,6,2,
1,3,8,4,7,5,6,1qq6[16:13],{2}4qq6[4:3],
{4},,,{8}2,{16}2,4,
{8}3,{16}5,4,5,4,,6,{8}3,{16}2,1,2,1,{8}2,
{16}8,1,,6,5,6,{8}5,4/7,3,2,1,
{16}8,7,1,6,2,5,{8}3h[8:1],4,{16}2,1,2,8,3,7,
4,6,5,6,8,7,1,6,3,4,3,1,2,8,3,6,
5,6,8,7,1,6,3,4,{8}3,{16}5,4,,4,{8}5,
{16}5,6,,6,{8}7,{16}7,8,{8}6,5/1,{16}2,4,{8}3,
4/5,{16}6,5,{8}7,8/1,{4}7/2-4[8:1],6-8[8:1],
5-3[8:1],1-7[8:1],2-5[8:1],6-1[8:1],
4-1[8:1],8-5[8:1],2-7[8:1],6-3[8:1],
8-3[8:1],4-7[8:1],{8}2,2,{16}2,1,,1,
,1,{8}8,{16}8,7,{8},{2}4z8[4:1],
E
