&title=过♂年
&artist=泽野螳螂
&first=0.095
&des=哲♂学♂FA♂庭♂ Team
&lv_7=♂
&inote_1=&title
&inote_6=
&inote_7=(131.91)
{1},
{2}6x-8v5>3[6:1]/2x-8v3<5[6:1],6xb>4v1-3b[6:1]/4xb<6v1-7b[6:1],
{4}4xb-1-7<6b[1:1]/5xb-8-2>3b[1:1],,,,
{24},,,,,,,,,,,,A2,A3,,A7,A6,,A2,A3,,A7,A6,,A2,A3,,A7,A6,,
{32}A2,D3,A3,,A7,D7,A6,,A2,D3,A3,,A7,D7,A6,,A2,D3,A3,,A7,D7,A6,,
{8}A2/D3/A3,A7/D7/A6,A2/D3/A3,A7/D7/A6,A2/D3/A3,A7/D7/A6,A2/D3f/A3,A7/D7f/A6,A2/D3f/A3,A7/D7f/A6,D2/E2/B2/A2/E3/D3f/B3/A3/E4/D4,,D8/E8/B7/A7/E7/D7f/B6/A6/E6/D6,
D,A1/A2/A3/A4/A5/A6/A7/A8/B1/B2/B3/B4/B5/B6/B7/B8/E1/E2/E3/E4/E5/E6/E7/E8/D1/D2/D3/D4/D5/D6/D7/D8/Cf,,
{4},
{8}5-1[8:1]/4,12,4-2[8:1]/5,3,4-8[8:1]/5,1,45,
{16}7,1,8b-3[8:1],,1,7,8b-5[8:1],,6,2,8b-3[8:1],,2,6,8b,,7,,
{8}1-5[8:1]/2,34,1/2-4[8:1],3,1/2-6[8:1],5,12,
{16}7,8,5b-8[8:1],,3,2,5b-2[8:1],,3,4,5b-8[8:1],,7,6,5b,,1,,
{8}7q4[8:1]/8,45,78,
{16}1,2,3q8[8:1]/4,,18,,34,,7,,
{8}2p5[8:1]/1,54,21,
{16}8,7,6p1[8:1]/5,,81,,65,,2,,
{8}8bw4[8:1],,A8f,,1bw5[8:1],,A1f,,
{16}3/8qq3[8:3],,,2,8,,3<8[2:1],,1,,2,,3,,4,,
5<2[8:5],,6<2[8:4],,7>2[8:3],,8>2[8:2],,4<8[8:4],,5<8[8:3],,6<8[8:2],,7,,3,
,,,1h[4:1]b,,
{48}2b,3b,4b,5b,6b,7b,8bw4[2:1]b,,,,,,,,,,,,
{4},,,
{8}6x-4[8:1],4v7b[8:1],3,2,
2x-8[8:1],8v3b[8:1],7,6,
5x<8[8:1],2>5b[8:1],5,2,
8xz4[16:2],4,3,2,
{8}4x-2[12:1]/5x-7[12:1],2-4[12:1]/7-5[12:1],4x/5x,,
{32}A5/A4,E6/E4,E3/E7,,5x/4x,,,,A5/A4,E6/E4,E3/E7,,5x/4x,,,,
{8}4x>2[12:1]/5x<7[12:1],2x>4[12:1]/7x<5[12:1],4x/5x,,,
{16}2-4[8:1],,4-8[8:1]/6,,28,,7-4[8:1],,6,,7/1-5[8:1],,2,,
{32}1/5>2[8:1],6,7,8,,,,,
{8}5<8[8:1]/1,7,5-2[8:1]/1,3,5-8[8:1]/1,7,
{32}5/1<6[8:1],2,3,4,,,,,
{8}1>4[8:1]/5,3,1-6[8:1]/5,7,1-4[8:1]/5,3,15,7h[8:2],,
{8}8-3[8:1]*-5[8:1],26,8,,4,7v4[8:1]/1,3v8[8:1]/5,7<4[8:1]/1,3>8[8:1],,,,6,8h[8:4]/2,,,1,
{32}2,37,46,5,
{16}3x/4x,6x/7x,2x/3x,7x/8x,1x/2x,1x/8x,A1f,,7x,,2xV46[8:2],,4,,6V42[8:2],,8,,2,,8,,7hx[8:1],,,,
{8}2-4[8:1],7-5[8:1],2-6[8:1],7-3[8:1],2,7,
{16}1bx,,,,
{16}5-8[8:1],3,5qq5[8:1],,5,,5,,8-5[8:1],4,
{16}8q5[8:1],,8,,8,,7<5v4>7[2:1],,4,,7,,B7,,
{16}B2,,,,,,4>2[8:1],8,4<6[8:1],,4x-8[8:1],,4x,,4x,,
{16}5h[8:1],,4,,D3,,E3,,B2/B3,,C,,B6/B7,,E7,,
{16}D7,,,,Cf/B1/B2/B3/B4/B5/B6/B7/B8,,,,,,,,2-5[8:1]/8,,3,1,
{16}2,,,,4/6-1[8:1],,7,5,6,,,,3,5,4,5,
{16}2,5,4,5,1,5,4,5,3bx/6bx,,3bx/6bx,,
{16}7b-3b[8:1],,4,4,7qq7[4:1],,A1f,,7/2pp2[4:1],,A8f,,2,,A1f,,
{32}6x,7,8,,4x,3,2,,5x,6,7,,3x,2,1,,{16}6v8[8:1],,8p4[8:1],,6,,2,,3,,7<4b[8:1],,3>8b[8:1],,7bx-3b[8:1],,3bx,,7bx/Cf,,,,6,6,1,,5v7b[8:1],,1>4b[8:1],,5bxq2b[8:1],,1bx,,5bx/Cf,,,,3,3,8,,4v7b[8:1],,6-1b[8:1],,4bp2b[16:3],,6bx,,4bx/Cf,,,,7,,4-1[8:1],,6>3b[8:1],,4,,6bx<1b[8:1],,B8f,,6bx-2b[8:1],,B4f,,6bx,,
{8}3,8b/4b,6,1b/5b,{48}A2,B2,B3,D4,,,A7,B7,B6,D6,,,
{16},,4bh[89:1],,4h[64:1]/5,,6bh[89:1]`3h[64:1],,,,5h[64:1]/4,,6bh[89:1]`3h[64:1],,,,
{16}3h[8:1],,4,3,{32}7x-3[8:1],6,5,4,3pp8b[4:1]/2-7b[8:1],,,,7x,,,,,,,,,,,,,,,,
{16}1/2-4-6-3[4:1],,,8,2,,6,,7-4-8[4:1],,,3,7,,2,,1>3[8:1],,6,6,1<7[8:1],,4,4,1-5[8:1],,6,6,8-4-8b[8:1]/1b,,,,B2/E3f,,E7f/B6,,
4-2b[8:1],4,6-8b[8:1],35,4b,,6b,,,,1,8,2-4-2[8:1]/7-5-7[8:1],8,1,8,,,,,2>4>2-4-2-5-7b[8:5]/7<5<7-5-7-4-2b[8:5],1,8,1,,,,,,,,,,,,,1-4b[8:1]/8-5b[8:1],7x/2x,3x/6x,4x/5x,1b/8b,,,,B8/B1/E1/D1f,,,,
{8}4bx>1v2<7v8<5b[4:3],5bx,4bx,B2f/B3,
5bx,4bx,5bx,B7f/B6,
{16}8bx,2bx,8bx,2bxqq5b[16:5],8bxpp5b[4:1],2bx,8bx,2bx,8bx,,,,A5f/E6/E5,,,,
7bx-2b[8:1]/4bxp8>1p5b[4:1],,,,,B1/B8,,,2bx>4v5<7-2b[4:1],,,,C/B5/E5/B4/D5,,,,
{16}6bx,4bx,6bx,4bxpp1b[16:5],6bxqq1b[4:1],4bx,6bx,4bx,6bx,,,,A1f/E1/E2,,,,
{64}3h,4h,,,,,,,2h,1h,,,,,,,
8h,7h,,,,,,,2h,1h,,,,,,,
3h,4h,,,,,,,2h,1h,,,,,,,
8h,7h,,,,,,,2h,1h,,,,,,,
3h[128:1],,,,6h[96:1],,,,4h[128:1],,,,5h[96:1],,,,
3h[128:1],,,,5h[96:1],,,,4h[128:1],,,,6h[96:1],,,,
3h[96:1],,,,3h[128:1],,,,5h[96:1],,,,5h[128:1],,,,4h[96:1],,,,
4h[128:1],,,,6h[96:1],,,,6h[128:1],,,,
5v2[131.9#8:1],,,,,,,,6h[256:1],,,,6h[256:1],,,,
5v8[131.9#8:1],,,,,,,,4h[256:1],,,,4h[256:1],,,,
2-8[131.9#8:1],,,,,,,,3-7[131.9#8:1],,,,,,,,2h,,,,,,,,3h,,,,,,,,
2h[128:1],,,,1h[256:1],,,,4h[96:1],,,,5h[128:1],,,,
8h[256:1],,,,7h[96:1],,,,4h[128:1],,,,5h[96:1],,,,
3pp5[8:1]/6qq4[8:1],,,,,,,,,,,,,,,,3bh/6bh,3?>6[131.9#8:3],,,,,,,,,,,,,,,
Cf,,,,,,,,,,,,,,,,3?>6b[131.9#8:3],,,,,,,,
1xh[128:1],,,,2xh[128:1],,,,3xh[128:1],Cf,,,,,,,,,,,,,,,
,,,,,,,,1bh[128:1],,,,,,,,
8h[128:1]/4h[128:1],,,,,,,,2h[128:1],,,,6h[128:1],,,,
4-7-4-1[8:3]`4?-1-4-7b[8:3],,,,,,,,5h[128:1]/3h[128:1],,,,,,,,
A4f,,,,,,,,A1f,,,,,,,,A4f,,,,,,,,A7f,,,,,,,,
{64}2V48[131.9#8:2]/8h[128:1],,,,,,,,,,,,8h[128:1],,,,8-4[131.9#8:1],,,,,,,,
7h[128:1],,,,,,,,6h[128:1],,,,,,,,
5-1b[131.9#16:1],,,,,,,,,,,,,,,,4h[128:1],,,,,,,,
{16}A3,A6,A3,A6,A3,A6,A3,,
4x-1<8[8:1]/5x-8>1[8:1],,,,
{48}5<8[32:3],D1f,,
{16},,,8-2v3-5[8:2],,,,5<8[8:1],,,,8>5[8:1]*-5[8:1],,,,
{48}A2,B6f,,
{16},,,2x/3x,2x/3x,7x/6x,7x/6x,1x/2x,7x/8x,1x/2x,7x/8x,3x/6x,,B2/E3/B3/D3f/A2/A3
,,,,,,4-2[8:1],4,5-1[8:1],,4,,5-2[8:1],,2x-6[8:1],,5x/7xp5[8:2],,,,,,,,,,
{48}45,36,27,
{16}1/8q8[8:2],,,B8f,,,,,,,,7-3>2-6<7[8:12]*-5>4-2[8:12],,,,,,,,,,,,,,,,,,,,,,,,,,,,,,,,B5/B4/E5/D5,,,,4pp5-8>1-4[8:2]/5qq4-1<8-5[8:2],,,,,,E1/D1f/B8/B1,,,,
