&title=Fine Logic
&artist=Sephid feat. aria
&first=0
&des=Suteralice
&lv_5=14
&inote_5=(175){1},
{4}2-4[8:1],1,8-6[8:1],1,
{8}2w6[8:2],,,,,,,
8,7-5[8:1],,8,,1-3[8:1],,8,,1/7,,2/6,,3v1[16:2]/5v7[16:2],,,,
8<3[8:4],,2,,1,,8h[8:4],,5,6,7,8w4[8:1],,,,3,2v4[8:1]/6v8[8:1],,2/6,,
3v1[8:1]/7v5[8:1],,3qq8[8:6]/7qq4[8:6],,,,,,,,,,
1b>5[8:4]/5,,6,,7,,8,,1<5[8:4]/5,,4,,3,,2,,1w5[8:1],,1b,,
3^5[8:1]/5,,36,,7^5[8:1]/5,,74,,
{16}2>5[8:1]/5,,,,2/6,,,,
{8}
7/5,7,7/8,7,74,7,71,7,6/3,
3,3/1,3,3/5,3,3/8,3,3/6h[8:2],,
4h[8:2],,2h[8:2],,8>3[8:1]*<5[8:1],,8,,4w8[8:1],,4,,3/7,1/5,
{16}2b,,6,5,7,,1,,2>5[8:1],,5,,2<7[8:1],,7,,2,,
6,,7[8:1],,2,,7<4[8:1],,4,,7-3[8:1],,3V51[8:2],,7,,
,,,,3-8[8:1],,8V61[8:2],,3,,5h[8:1],,,,6,,7,,
8<5[8:1]/4-8[8:1],,,,8>3[8:1]/4,,,,8,,,,
4/7,,3,8,2,,1-7[12:1],,7,,1-3[12:1],,4,,1-5[8:1],,5,,1,,
7,,8-6[12:1],,6,,8-2[12:1],,3,,8-4[8:1],,4,,8,,3,,2,,1h[8:6]/5,,4,,3,,2,,8,,,,7,,,,
6,,5/1,2/6,3b/7b,,,,
{8}3h[8:2]/7,,5,,3h[8:2],,6,,3h[8:2],,7,,3h[8:2],,8,,
7h[8:2],,5,,7h[8:2],,4,,7h[8:2],,3,,{16}7,,,2,,,7,,
{8}1h[8:2],,8,,1h[8:2]/7,,7,,1h[8:2]/6,,6,,1h[8:2]/5,,5-1[8:2],,5h[8:2],,,,
1/5,3-8[8:1]/7-4[8:1],,3bqq2[8:4]/7bqq6[8:4],,,,,,,,,
2>5[16:5]/5,,6,,{16}7,,,8/5,,,1,,2<5[8:4]/5,,,,4,,,,3,,,2,,,1,,
8>4[8:3]/4,,,,5,,,,6,,,7,,,8,,1p5[8:3]/5,,,,4,,,,3h[8:1],,,,2,,1,,
8V25[8:3]/4,,,,5,,,,6-3[8:1],,,7,,,8,,
1w5[8:1],,,,1,,,,
2/4,,,7/5,,,1/8,,2/7,,,,
6V48[16:7]/3,,,,1,,,8V64[16:5],,,1,,
2V83[8:4],,,,2,,,,4,,,5,,,6,,
{8}7h[8:2],,8,,7h[8:2],,1,,7h[8:2],,2,,7h[8:2],,3,,
3h[8:2],,4,,3h[8:2],,5,,3h[8:2],,6,,3h[8:2],,7,,
8/7,,7/6,,7/5,,7/4,,4/3,,3/2,,3/1,,8/3,,
7/8,7,7/5,7,7/1,7,7/3,7,6h[8:2]/3,,4h[8:2],,2h[8:2],,8w4[8:1],,8,,
{16}2h[8:2],,1,8,7-4[8:1],,4-8[8:1],,7,,3-7[8:1],,,,3-5[8:1],,5-1[8:1],,3,,6,,7,,8,,,,
8h[8:1]/1,,7,6,5,,3,,3,4,3,4,2,5,2,5,1>3[8:1],,4,,1-4[8:1],,5,,1-5[8:1],,6,,
1,,7V51[8:2],,3,,1V35[8:2],,2,,3h[8:2],,,,,,
2/6,,3,,8<6[8:1]/4,,5,,8-5[8:1],,4,,8-4[8:1],,3,,8>3[8:1],,,,
8/6V84[8:2],,,,6/5,,
4h[16:1],,3h[16:1],,2h[16:1],,1h[16:1],,8h[16:1],,
7h[16:1]/1h[16:1],,3h[16:1]/8h[16:1],,5h[16:1]/7h[16:1],,6h[16:1]/2h[16:1],,
4h[16:1]/1h[16:1],,3h[16:1]/7h[16:1],,5h[16:1]/1-4[8:1]*-6[8:1],,,,
1b,,,,8qq4[8:4],,{24}3-1[8:1],4,5,{16},,3,,,,{24}1-5[8:1],2,3,{16},,1,,
6-1[8:1],,4-8[8:1],,6-3[8:1],,4,,6,,,,
1h[24:11],,8,,7,,{24}6,,,
{16}5,2,4,3,5-1[8:1],2,4,3,5,,
4V28[8:2],,1,,8V62[8:2],,7,,6,,5h[16:1],,5h[16:1],,
{8}3/4,3,3/1,3,3/5,3,3/8,3,7/4,7,7/1,7,7/5,7,7/8,7,
{16}6/2,,3,5,2,6,1,7,8,6,5,7,4,8,3,1,
{32}2b,3,4,5,,,,,1b/7b,6,5,4,,,,,1b/8b,2/7,3/6,4b/5b,,,,,
{8},,
3/4,,3h[8:2]/4,,4,3,,5,4,,6,5h[8:2],,,6h[8:2],5,4,,3,,2,1,,8,1/8,,2/7,,3/6,,,,
7/5,7,7/8,7,74,7,71,7,6/3,
3,3/1,3,3/5,3,3/8,3,
{16}4,5,3,6,2,7,1,8,{24}3,4,5,6,7,8,{32}1,2,3,4,5,6,7,8,{8}1b/5,,
{16}3/7b,,
5,4,6,5,7h[8:3],,,,,,
1b,,1,2,3-8[8:1],,8-4[8:1],,6,,7,6,5h[8:2],,
1,8,7-3[8:1],,6,8,7,,2-5[8:1],,5-1[8:1],6,7,,8,,,,
8-2[8:1],,2-6[8:1],3,4,,3,4,5-1[8:1],,7,6,5/1,,
2,,3-8[8:1],,7-4[8:1],,3,,7,,1,,6,5,7,,
8<5[8:1],,5,,8>3[8:1],,3,,8-4[8:1],,4V62[8:2],,8,,
3,,3,4,5,,
1/5,,3b-8[8:1]/7-4[8:1],,,,3/7b,,,,8,,1,,
{24}2b-5[8:1]/6b-1[8:1],3/7,8/4,{16},,2<7[8:1]/6>3[8:1],,,,2/6,,,,
{24}2,1,8,7,6,5,{16}4/8,,2/6,,3/7,,1/5,,{24}5h[8:1],,,1,2,3,6h[8:1],,,2,3,4,
{16}7b,,2,,3>8[8:1],,8,,3<6[8:1],,6,,3-7[8:1],,7V13[8:2],,3,,6,,5,,4w8[8:1],,,,4,,,,
{16}1,,2,,7,,6<1[8:1],,1,,6>3[8:1],,3,,6-2[8:1],,
2V48[8:2],,6,,8-5[8:1],,1,,2,,3>8[8:1]*-6[8:1],,,,3,,,,
7,,2,3,4-8[8:1],,8V62[8:2],,4,,6,,5,,
{8}4,4<7[8:2],,7>2[8:2],,2>5[8:2],,5-1[8:2],,
{16}2,,2,3,4-8[8:1],,8-3[8:1],,8,,7,,6,,5,,4-1[8:1]*-7[8:1],,,,4,,,,
7-3[8:1],,8-4[8:1],,7<4[8:1],,8,,7b,,
3,,2,,1>4[8:1],,3,,1<6[8:1],,7,,1-5[8:1],,
5,,1,,7<4[8:1],,5,,7>2[8:1],,1,,7-3[8:1],,3V16[8:2],,7,,
4h[8:1],,,,4-7[8:1],,7V52[8:2],,8,,1h[8:1],,,,,,7,,
1>4[8:1],,4,,1<6[8:1],,7,,1-5[8:1],,5V73[8:2],,
1,,,,,,8,,8<5[8:1],,3,,8>3[8:1],,5,,8-4[8:1],,,,8-6[8:1],,1-5[8:1],,8-4[8:1],,1-3[8:1],,8,,1,,
8b-6[8:1]*-4[8:1],,,,8,,,,4/6h[8:2],,3,,2,,1/5,,8h[8:1]/4h[8:1],,,,7h[8:1]/3h[8:1],,,,2/6,,2bpp5[8:3]/6pp1[8:3],7/3,8b/4b,
