&title=六兆年と一夜物語
&artist=kemu
&first=0
&des_1=chrt
&des_2=chrt
&des_3=chrt
&des_4=chrt
&des_5=chrt
&des_6=chrt
&des_7=chrt
&lv_7=4?
&des=chrt
&inote_7=(186){8},,,,,,,,,,,,,,,6h[8:2],,,,6,,,,,6h[8:2],,,,6,,,,6h[8:3],,,A5,3h[8:3],,,A6,,A4,,A3,,,A6,,,,,4h[8:3],,,,,5h[8:3],,,A4,,6h[8:3],,,A5,,6h[8:3],,,5,4,3,,A5h[8:15],,,,,,,,,,,,,,,,,,{16}5,6,5x,4,3,,,A6/A3,,,5,5,6x,5x,4x,3x,4,4,4,5h[16:1],,,A5/A4,,,,3,4,3,4,3h[16:1],4,3,4,5,6,6x,,A4,,,,5,6,5,6,5,6,,A6,5,A4,3x,A5,3x,5,6>3[16:2],4,6,5,6,A4,,A3,,A3,4h[16:1],,4,,A5/6,,,,5,6,5,4,5,3<6[8:1],6,5,4,3h[16:1],,A5,,A6,,,4,5,4,5,4,5,4,,3,4,3,4,3,4,3,,6,5,6,5,,4,5,4,5,,3b<6b[8:1],4,3,4,3,,A5,,,,A6/4h[8:2],,{8},,,,A5/6,A4/3,,45,,54,,65,43,56,,A6/,A5,A4/3,,43,45,5>3[8:1]/6h[8:2],,A4,,5,,4h[8:1]/6h[8:1],,53,,53,,4h[8:2]/6h[8:2],,,,A5/A3,,54,,6h[8:2]/3h[8:2],,,,54,,63,,3h[8:2],,6,5,,A3,A4,,A5h[8:2],,,,5h[8:2],,4h[8:2],,3h[8:2],,4,,A5/A3,,5h[8:2],,,65,54,,34,,3,4,5,A6,,6,5h[8:3],,,4,,4,,5>3[8:1]/4,65,54,,,5h[8:4],,6>3[8:1],,6,,5x,4h[8:4],3<6[8:1],,3,,4,,6h[8:2],,5h[8:2],,4h[8:2],,3,,A5/A3,A4/A6,,,,,5h[8:2],,4h[8:2],,3h[8:2],,4,34,,65,65,,,,,,4h[8:2],,5,,6,,5h[8:1]/6h[8:1],,,A4,A3,,,,,,4h[8:2],,3,,5h[8:2],,4,,6h[8:2],,5,,A5/A4,,,,3h[8:2],,4,,6h[8:2],,5,,4h[8:2],,5,,6b/3b,,,,{16},4,5,4,5,4,5,4,5,4b,,3,4,3,4,3,4,3b,,43,,54,,5h[16:1]/6h[16:1],,4,6,,3,4,5,6,6bx,,,,3/6,4,5,,4,5h[16:1],4,,3,4,5,6,5x,6x,5,6,5,6,5,6,A5,,,,6b/5b,,5b/4b,,4b/3b,,,,3,4,3,4,3,4b,,,4,5,4,5,4,5b,,,6,5,6,5b,6,4x,5x,4,5xb,4,3b,4,3hx[16:1],,3b,,6h[8:1],,,,6h[8:1],5,4,3,6h[8:1],5,4,3,6h[8:1],5,4,3,6h[8:1],5,4,3,,A6,,A3,,A5,,A4,,A6/A3,,,5,4,5,4,5,A4,,6,5,6,5,6,A5,,,,5h[8:1]/4h[8:1],,,,45,,45,,A3/A6,,A5/A4,,63,,,,6,5,4,3x,3<6[8:1],,3h[8:1],,,,A5,,A6/3,,4,,6,,5,,6>3b[8:1],,,,6h[8:1],,,,6b,,,,3,6,3,6,3,6,3b,,5x,4x,5,4,5,4,5b,,4,3,5,6,5,4,3,4,5h[16:3],4h[16:1],,3b,,,,,3h[8:1],,,,3h[8:1],4x,5,6,3h[8:1],6x,5,4,3h[8:1],4x,5,6,3h[8:1],6x,5,4,,A3,,A4,,A5,,A6,,3b,,,4,3,4,3,4,3b,,,5,6,5,6,5,6b,,,,34,,65,,3h[8:1]/4h[8:1],,,,A6/A5,,A4/A3,,A6/A5,,,4h[8:1],,5h[8:1],,4,,,,A6/A3,,A5/A4,,63,,54,,63,,54,,6h[8:1]/3h[8:1],,,,5<6[8:1]/4>3[8:1],,63,,54,,,,,6,5,4,3,6,5b,,6,5,4,3,6,5b,,3x,4x,5,6,3,4,5,6,3,4,5,6h[8:2],,A5,,A4,,,3b<6b>3b<6b>3b<6b>3b<6b>3b<6b[8:8],,3,,3h[8:8],,A4,,A5,,A4,,A5,,A4,,A5,,A4,,A5,,3,,4x,,5x,,6,,,{8}A5,A4,A5,,A3,A4,A3,,6h[8:1],5h[8:1],4h[8:1],3h[8:1],4x,3x,6bx>3[8:10],5x,A6h[8:10],,,,,,,,,,,,5b/4b,,6b/3b,,{16}5,4,5,4b,5,4,5,4b,5,4,5,4b,5,4,5,4b,,5x/4x,,65,,54,,43,,5b/4b,,,4,5,4,5,4,,65,,43,,6,,5,,4,,3<6[8:1],,3,,3h[8:1],,A5,,3,,6,5,6,5,6,,65,,34,,3,,4,,5,,6>3[8:1],,6,,6,,A4,,A3,,4,3,4,3,4,3,4,3,4,3b,,,65,,54,,4h[8:1]/3h[8:1],,,,A5/A6,,,,3,,4,,5,,6,,34,,54,,65,,,,3,4,3,4,3,4,3,,5,4,5,4,5,4,5,,6,5,6,5,6,,4,5,4,5,4,,3,4,3,4,3,,A5/A6,,,,,,,6,5,6,5,6,,4,5,4,5,4,,3,4,3,4,3,,6>3[8:1],5,6,5,6b,E
