&title=可愛くてごめん
&artist=HoneyWorks
&first=0.22
&des=Cuber-26
&lv_5=13+
&inote_5=(160)
{4}
,
{4}
2bh[4:1]/5bh[4:1],,4bh[4:1]/7bh[4:1],,
{4}
1bh[4:1]/3bh[4:1],,7bh[4:1]/8bh[4:1],,
{4}
1b-5[8:1]/6b-1[8:1],,4b>1[8:1]/8b<5[8:1],,
{4}
1bq5[4:1]/5,{16}
,,8x,7x,{4}
6xh[8:1],47,
{8}
2xh[4:1]/5x,,5,4,3xh[8:1]/6x,,46,3,
{8}
2x/5x-8[8:1],,25,,3x/1x-5[8:9],,B2,B3,
{8}
E4,,,,1-5b[8:1],,1,,
{16}
3,4,3,,6,5,6,,{32}
3,2,1,8,7,6,5,4,{4}
3bx/7,
{8}
6h[4:1]/2,2,3,3,6/4-1[8:1],35,,6,
{8}
3h[4:1]/7,,8,,7/1<6[8:1],28,,3,
{8}
7h[4:1]/4,4,3,3,2h[4:1]/5,5,,6h[4:2],
{8}
,2,3,4,5-8[8:1]*-2[8:1],,5b,,
{8}
7h[4:1]/1,1,2,2,71,8/2V41[8:3],,26,
{8}
5h[4:1],,,,1-4[8:1]*-6[8:1],28,,,
{8}
5h[4:1]/3,3,4,4/6-1[8:1],,56,,4,
{8}
35,3,46,6,{32}
7h[8:3]/5x,,,,4,3,2,1,8b,,,,,,,,
{8}
17,2,37,6,35,2,35,6,
{8}
7/4h[4:3],,B6,B7,E8,B8,B1,4x,
{8}
3x/5x,2,18,7,28,3,17,6,
{8}
3/5h[4:3],E4,B3,B2,E2,B1,B8,5x,
{8}
1x-4[8:1]/6,6,17,7,8<5[8:1]/5,,58,4,
{4}
6/3-8[8:1],3/6-3[8:1],16,1>8[4:3],
{4}
1,1,1,{8}
1,2,
{8}
3>8[8:1]/8,8,7,7,8x-5[8:1]/6,,28,2,
{8}
3x/5x,4,5,46,4/6-1[8:1],,46,3,
{8}
28,28,17,17,26,26,35,35,
{8}
6xV82V86[4:2]/4x,,4,,3,,4,,
{16}
3,7,3,7,3,6,3,6,{32}
3b,2,1,8,7,6,5,4,{4}
3bx/8xw4[8:1],
{8}
8b,,,26,15,2,1>4[8:1]/5<8[8:1],6,
{8}
1-6[8:1]/5-2[8:1],,,,3b/7b,,35,46,
{8}
7-2[8:1]/5h[4:1],,7x,3,2x/8x,2,1/7-2[8:1],6,
{8}
7-3[8:1]/1,,1/7qq8[4:1],,17,,,,
{8}
6b-1[8:1]/B3/B4,,,5,48,3,4>1[8:1]/8<5[8:1],7,
{8}
4-7[8:1]/8-3[8:1],,,,2x/6x,,5-1-3[4:1]/3,46,
{8}
5/7h[4:1],,,7,45,3,4-2[8:1]/5-2[8:1],6,
{8}
4-7[8:1]/5-7[8:1],,5/4p3[4:1],,Cf,,,,
{32}
1b/8b,27,36,45,,,,,{8}
,73,84,7,8<5[8:1]/4>1[8:1],3,
{8}
8-3[8:1]/4-7[8:1],,,,6b/2b,,64,53,
{8}
2-7[8:1]/4h[4:1],,2x,6,7x/1x,7,8/2-7[8:1],3,
{8}
2-6[8:1]/8,,8/2pp8[4:1],,82,,,,
{8}
1b>4[8:1]/B6/B7,,,6,15,2,1>4[8:1]/5<8[8:1],6,
{8}
1-6[8:1]/5-2[8:1],,,,3x/7x,,4<7[8:1]/6,35,
{8}
2h[4:1]/4,,,2,17,6,2>5[8:1]/8,3,
{8}
2/8bpp8[4:1],,8qq8b[4:1],,,,,,
{8}
C,,,,E3/E7,,,,
{8}
46,,35,,4qq2[8:1]*pp6[8:1]/6x,,,,
{8}
1b>4[8:1]/5b,,15,,6-3[8:1],6,2,2,
{8}
1>4[4:1],,4q1[4:1],,1,,4,5,
{8}
6>3[8:1]/2<7[8:1],,,,1>4[8:1]/5<8[8:1],,,,
{8}
1-7[8:1]*-6[8:1],,1-4b[8:1],,{16}
1b,,6,5,6,,3,4,
{8}
3x-6[8:1],3,8,8,7x-4[8:1],7,1,1,
{8}
2x-5[8:1],2,6,6,4x/7x,,3,3,
{8}
8x-5[8:1],8,2,2,1x-4[8:1],1,7,7,
{8}
8bw4[8:1],,8b,,{32}
3b,2,1,8,7,6,5,4,{4}
3bx/7,
{16}
46,,3,4,3,,2,,71,,2h[8:1]/6h[8:1],,,,35,,
{16}
35,,7,8,7,,16,,2/5-8[8:1],,3h[8:1]/4,,,,,,
{16}
47,,6,5,6,,35,,46,,,,28,,,,
{16}
17,,6,,35,,2,,1s5[8:1]/7,,,,18,,,,
{16}
37,,2,2,8,,17,,56,,2h[8:1]/8h[8:1],,,,17,,
{16}
46,,7,7,8,,17,,2v1[8:1]/6v7[8:1],,26,,,,,,
{16}
28,,3,3,4,,5,,46,,,,15,,,,
{32}
2hx[4:1]/6,7,8,1,,3,4,5,6,,,,,,,,6hx[8:3]/3-7[8:1],2,1,8,7,,5,4,3bx,,,,,,,,
{8}
1-5[8:1],5-2[8:1],1,6,7-4[8:1],4-8[8:1],7,3,
{8}
2,E8,E7,{16}
E3,B3,B4,,{8}
E6,C,,
{8}
8x-4[8:1],4-6[8:1],8,2,3-7[8:1],7-1[8:1],3,6,
{8}
5,E2,E3,E4,E5,E6,E7,3x,
{8}
8x/2x-5[8:1],8,27,7,4-8[8:1]/6,3,46,5,
{8}
1-3[8:1]/4-8[8:1],,14,,2b/7b,,36,,
{8}
4>6[4:1]/5,,5,,5,,57,8,
{8}
15,1,25,3xh[8:1],5,,54,3,
{8}
2x/5x,3,4,2x/5x,2x/5x,,56,56,
{8}
4x/7x,47,3x/6x,36,{16}
2x,5,2,5,2,5,2,5,
{8}
1>5[4:1],,5<1[4:1],,1,,5,,
{16}
26,,3,4,3,,47,,47,,5,5,4b/6b,,,,
{32}
1b-4[8:1]/8b,27,36,45,{8}
,,5,36,2,1>4[8:1]/5<8[8:1],2,
{8}
5p1[8:1]/1p5[8:1],,,,2b/6b,,8-5[8:1]/7,1,
{8}
28,,46,4,37,7,2>4[8:1]/6,15,
{8}
2-5[8:1]/6,,2s6[4:1]/7,,2/8h[4:1],,,,
{48}
8b<5[8:1]/5x/E5,B4,B3,E3,,,{8}
,8,3,26,3,4>1[8:1]/8<5[8:1],7,
{8}
4q8[8:1]/8q4[8:1],,,,3x/7x,,4/6-3[8:1],57,
{8}
68,,8x-4[8:1],7,8/1-5[8:1],2,1-3[8:1]/8-3[8:1],7,
{8}
1-6[8:1]/8-6[8:1],,1>8[4:1]/8q1[4:1],,{32}
1b/8b,B2,B3,B4,B5,B6,B7,B8,{4}
,
{32}
8b-5[8:1]/1b,72,63,54,{8}
,,4,63,7,8<5[8:1]/4>1[8:1],7,
{8}
4q8[8:1]/8q4[8:1],,,,7b/3b,,1-4[8:1]/2,8,
{8}
71,,53,5,62,2,7-4[8:1]/3,48,
{8}
7b-3[8:1]/3,,7b<2[4:1]/2,,7b/1h[4:1],,,,
{48}
1b>4[8:1]/4x/E5,B5,B6,E7,,,{8}
,1,6,73,6,5<8[8:1]/1>4[8:1],2,
{8}
5p1[8:1]/1p5[8:1],,,,2x/6x,,8<5[8:1]/6,17,
{8}
28,,1,1,28,3,2/8qq8[4:1],7,
{8}
3h[4:2]/8bpp8b[4:1],,,,,,,,
{8}
C,,,,E3/E7,,,,
{8}
35,,46,,5qq3[8:1]*pp7[8:1],,,,
{8}
6hx[4:7]/B2,,B3,E3,,,B4/E4,,
{8}
B1/B2,,B7,B8,,,C,,
{8}
5x/6x,,23,,46,,35,,2xV84[4:2]/4x,,,,,,,,
{8}
2xh[4:7]/B5,,E7,B6,,,B4/E4,,
{8}
E2/B2,,E1,B8,,,C,,
{8}
7x/8x,,34,,28,,17,,6xpp4[4:2]/8x,,,,,,3x,,
{8}
3,3,4,5,4,4,7,5,
{8}
6,6,3,7,2hx[4:1]/8hx[4:1],,,28,
{8}
2,1/2V46[4:1],,12,,8,8,7,
{8}
16,2,7,6,7hx[4:1]/8hx[4:1],,,78,
{8}
1-4[8:1]/6,16,,7,8<5[8:1],3,3,4,
{8}
3/5x,2,18,7,2h[4:1]/6h[4:1],,,35,
{8}
3hx[4:1]/5hx[4:1],,,,5hx[4:1]/7hx[4:1],,,,
{8}
2bhx[4:1]/4qq5[40#16:6],,,,6pp5b[80#8:6]/8bhx[4:1],,,,
{4}
4b/6b,,,,,,,,
{8}
57,,1,28,,56,,34,
{8}
,8,17,26,{32}
A3/5x,A2,A1,A8,A7,A6,A5,A4,{8}
A3,,
{8}
17,,3,4,57,4,3,6,
{8}
2-5[8:1]/7,,2/7-2[8:1],,47,,3,4,
{8}
5h[4:1]/6h[4:1],,,,3h[4:1]/4h[4:1],,,,
{8}
35,,46,,{32}
3b/5x,2,1,8,7,6,5,4,{4}
3bxpp8[4:14],
{4}
,,,,,,,,
{4}
B5,,E5,,B4,B3,E3,,
{8}
2x/5x,3,4,,3x/6x,4,5,,
{8}
4x/7x,5,6,{32}
,5x,4x,3x,{8}
6xpp4[4:4]/2hx[4:6],,,,
{4}
,,
{4}
,,,,
{8}
E3/B4,,,,E7/B5,,,,
{8}
25,,36,,7h[4:1]/4,,{32}
3,2,1,8,7,6,5,4,
{8}
3bx-8[8:1]/Cf/B6/B7,,,6,15,2,1>4[8:1]/5<8[8:1],6,
{8}
1-6[8:1]/5-2[8:1],,1-5[8:1]/5-1[8:1],,1b/5b,,3-8[8:1],4,
{8}
3b/5b,,6-1[8:1],5,4b/6b,4,1x-4[8:1]/3,2,
{8}
8x/1b-5[8:1],,7x/1b>8[4:1],,1b/6hx[4:1],,{32}
1,2,3,4,5,6,7,8,
{8}
1bw5[8:1]/Cf,,,,4x/8x,3,4>1[8:1]/8<5[8:1],7,
{8}
4-7[8:1]/8-3[8:1],,4-8[8:1]/8-4[8:1],,4b/8b,,2-5[8:1],1,
{8}
2x/8x,,7-4[8:1],8,1x>4[8:1]/7x,2,1/8qq8[4:1],,
{8}
8bpp8b[4:1]/3xh[4:2],,,,,,,,
{8}
E1,,,,E5,,,,
{8}
E1/B8/B1,,C,,B5/B4/E5,,,,
{8}
3b-6[8:1],,7,7,8-5[8:1],8,4,3,
{8}
2-5[8:1],,2/6-1[8:1],,46,,3,2,
{8}
35,2,35,6,57,8,46,2,
{8}
1>4[8:1],,1/8<5[8:1],,{16}
28,,3,4,2x,4,2,4,
{8}
1b>4[8:1],1,6,7,8<5[8:1],8,3,2,
{8}
1-5[8:1],1,7-4[8:1],7,3-8[8:1],3,5,6,
{8}
4x/7x,47,56,{16}
3,3,{8}
2x/5x,2x/5x,1x>4[8:1]*<6[8:1]/6x,,
{4}
1bw5[8:1]*-5b[8:1],1b,{32}
1b/8b,27,36,45,,,,,{8}
C,,,,E
