&title=第一天
&artist=孙燕姿
&des=SP七级
&wholebpm=176
&first=-0.03
&first_1=
&first_2=
&first_3=
&first_4=
&first_5=
&amsg_first=
&tap_ofs=
&hold_ofs=
&slide_ofs=
&break_ofs=
&lv_1=
&lv_2=
&lv_3=
&lv_4=
&lv_5=11
&seek=
&wait=
&inote_5=
(176){1},,,,,
{8}
1,,28,,1,1,82,,8,,17,,8,8,71,,
5,,64,,5,5,64,,3^8[4:1],,8^5[4:1],,5,,1,,
4,,53,,4,4,53,,5,,64,,5,5,46,,
8,,71,,8,8,71,,2-5[2:1],,8-5[4:1],,,,,,
5h[4:3]/1,,2,,1,1,2,,8h[4:3]/2,,3,,2,2,3,,
7h[4:1]/3,,4,6h[8:3],3,3,4,,52,,36,,72,2,83,,
4h[4:3]/8,,7,,8,8,7,,1h[4:3]/7,,6,,7,7,6,,
16,,25,,36,6,45,,4h[8:3]/7,,6,,37,7,62,2,
2h[2:1],,1,,7h[2:1],,8,,3h[2:1],,4,,6h[2:1],,5,,
1-5[8:1],1,8-4[8:1],8,
2-6[8:1],2,7p4[4:3],7,7h[4:3],,,,,,,,
87,,61,,87,87,61,,34,,25,,34,34,25,,
18,,72,,18,81,27,,
1>5[4:1],,5<1[4:1],,
1q4[2:1],1p6[8:3],,,,,,,3b/7b,,,,
81,1,1,1,1,1,1,1,71,7,7,7,7,7,7,7,
37,3,3,3,3,3,3,3,35,5,5,5,5,5,5,5,
51,1,1,1,1,1,1,1,71,7,7,7,7,7,7,7,
74,4,4,4,4,4,4,4,4,4^1[8:3]/8^5[8:3],,,,,,,
18,8,8,8,82,2,2,2,42,4,4,4,64,6,6,6,
61,1,1,1,13,3,3,3,35,5,5,5,57,7,7,7,
76,6,61,1,17,7,47,4,48,8,38,3,35,5,52,2,
32,3,34,4,54,5,56,6,67,7,87,8,18,1,12,2,
1b/6,6/1,,2/7b,7/2,,3b/8,8b/3,,,,,,,
{4}
,
{8}
1h[8:3],,,2h[8:3],,,4h[8:3],,,5h[8:3],,,7h[4:1],,,,
8h[8:3],,,7h[8:3],,,5h[8:3],,,4h[8:3],,,2h[4:1],,,,
1h[8:3],,,3h[8:3],,,6h[8:3],,,7h[8:3],,,8h[4:1],,,,
8h[8:3],,,6h[8:3],,,3h[8:3],,,2h[8:3],,,1h[4:1],,,,
1h[8:3],,,3h[8:3],,,5h[8:3],,,7h[8:3],,,1h[4:1],,,,
1,8,2,7,3,6,4,5,3,6,72,72,81,81,81,81,
{16}
1,2,1,2,1h[4:1],,,,2-6[8:1],,,,2,,,,
8,7,8,7,8h[4:1],,,,7-3[8:1],,,,7,,,,
2,1,2,8,2h[4:1],,,,8-5[8:1],,,,8,,,,
7,8,7,1,7h[4:1],,,,1-4[8:1],,,,1,,,,
{8}
8,1,8,2,8,3,8,4,8h[4:1],,,,8,,71,,
8>4[4:1],,4<8[4:1],,
8p5[4:3],8q3[8:5],,,,,,,,,6,7,
8h[2:1],,4,,2h[2:1],,6,,7h[2:1],,3,,1h[2:1],,5,,
5h[8:1],1h[8:1],6h[8:1],2h[8:1],
7h[8:1],3h[8:1],8h[8:1],4h[8:1],
8p5[2:1],,,,,,,,
15,,73,,51,51,73,,84,,62,,48,48,62,,
82,,64,,28,82,64,,
1-5[4:1],,5-1[4:1],,1p5[4:1],,5>1[2:1],,,,,,8,,,,
71,7,27,7,71,71,72,7,72,7,73,7,72,72,73,7,
73,7,74,7,73,73,74,7,72,7,37,7,72,27,73,7,
28,2,72,2,28,82,72,2,72,2,26,2,27,72,62,2,
62,2,52,2,26,26,25,2,27,6q4[8:3]/2q8[8:3],,,,,,,
87,87,87,87,87,87,87,87,12,12,12,12,12,12,12,12,
56,56,56,56,56,56,56,56,34,34,34,34,34,34,34,34,
51,51,51,51,51,51,51,51,73,73,73,73,37,37,37,73,
84,84,48,84,48,48,48,84,62,62,62,26,62,62,62,62,
48,84,,62,62,,84,8h[8:7]/4h[8:7],,,,,,,,,
15,51,,73,37,,51,5h[8:7]/1h[8:7],,,,,,,,,
87,43,,12,56,,54,
{1}
7h[10:16]/2h[10:16],,
{8}
,
{4}
1-4[8:1],1-6[8:1],1-5[12:1],,
8-5[8:1],8-3[8:1],8-4[12:1],,
2>4[8:1],2<8[8:1],2-6[12:1],,
7<5[8:1],7>1[8:1],7-3[12:1],,
8-4[8:1]/1-5[8:1],8<6[8:1]/1>3[8:1],
1-5[8:1]/8-4[8:1],1>8[1:2]/8<1[1:2],
{1}
8b/1b,,,,,,,
E
&amsg_time=
&amsg_content=
