&title=生きる
&artist=水野あつ,可不
&first=0.05
&des=余华
&des_5=余华
&lv_5=12+
&inote_5=(112){4},{1},{4},,,{16}4/5h[8:15],
,,4,{8}4,3,{4}2,1h[8:1],
{8}7,7,6,6,{4}4h[8:1],{8}3,3,
{16}2/6h[8:15],,,2,{8}2,1,8,8,7,7,
{8}5h[8:1],,3h[8:1],,{2}1h[4:1],
{4}6/5>2[4:1],2<7[4:1],{8}7<8[2:1],5,{4}4,
{8}8V64[4:1],6,{4}4>8[16:5]*<8[16:5],,,7h[16:3],
{8}6h[8:1],5,{4}2h[4:1],{8}3h[8:1],4p2[16:7],
{4}8p6[16:5],,,1b,
{16}2/8h[8:1],3,{8}4,{4}5/6h[8:1],{8}1/8h[8:1],3,{4}5/6h[8:1],
{8}1/8h[8:1],3,5/6h[8:1],7,2/8h[8:1],{16}3,4,{4}5/6h[8:1],
{16}7/1h[8:1],6,{8}5,4/3h[8:1],2,8/1h[8:1],6,{4}4/3h[8:1],
{8}7/1h[8:1],5,4/3h[8:1],2,{16}8/1h[8:1],7,6,5,{8}4/3h[8:1],2,
{4}8h[8:7],{16}4,,,7,{8}7,6,{4}4,
{1}7h[4:3]/3pp8[2:1],
{4}6/1h[8:7],{16}5,,,8,{8}8,7,{4}5,
{1}2h[4:3]/4qq7[2:1],
{4}1/8h[4:1],7h[4:1],{8}6,6h[8:1],5,5h[8:1],
4,3,{4}2>8[16:5],{2}1,
{16}1h[4:1],,,3,{8}3h[4:1],4,{4}4h[4:1],5h[4:1],
6h,,,5b/2b,
{8}1/6-8[8:1],2,3,4,5/1p5[8:1],4,3,2,
1/4<7[8:1],2,3,4,5/8<5[8:1],4,3,2,
5/1<6[8:1],2,3,4,5/1v6[8:1],2,3,4,
5-1[8:1],5,2-5[8:1],2,8,7h[4:1],{16}5,4,{8}3,
8/2-8[8:1],7,6,5,4/8q4[8:1],5,6,7,
8/5>2[8:1],7,6,5,4/1>4[8:1],5,6,7,
4/8>3[8:1],7,6,5,4/8-3[8:1],7,6,5,
4,2,4pp4[16:5]*qq4[16:5],6,,,,,1/8h[4:3],
2,{4}4,{8}2,3,{4}5,
{8}1/7h[2:1],2,{4}4,3h,4/5,
{8}2,7h[4:1],{16}3,4,{8}5,8h[8:3],{16}2,3,4,3,{8}2,
6h[8:3],{16}4,3,{8}2,1,5<8[8:1],{16}1,2,{4}3h[4:1],
{8}1h[4:1],2,{16}3,4,{8}5,8h[8:3],{16}2,3,4,3,{8}2,
6h[8:3],{16}1,2,{8}3,4,{16}5,6,{8}7,{16}4,5,6,5,
{8}4,2,{4}1p4[4:1],{16},,,,5,6,7,8,
{8}1h[2:1],6,{4}4qq4[4:1],{8},8,{16}7,7,,2,
5,3pp6[16:7],{8}7v1[8:1],,,,8,7,7,
5/4,4/5,3/6,6/3,{4}2/7,{8}7/1>5[4:1],,
4,,{4}8V64[4:1],{8}5,,{4}2v5[4:1],
{8}4,,{4}8p3[4:1],2,8>4[4:1],
{8}3,,{4}1V75[4:1],{8}6,,{4}4qq4[4:1],
{2}4pp4[4:1],{8}8,7,{16}6/4>8[4:1],,{8},
1,7,{4}5V71[4:1],{8}7,1,{4}3v8[8:1],
{8}1,7,{8}5q2[4:1],,1,3,5V31[4:1],,
{8}2,8,{4}6<2[4:1],{8}1,3,{4}4qq4[8:5],
5,6,7,6b/3b,
{8}1/6-8[8:1],2,3/6,4,5/1v6[8:1],4,3/1,2,
1/5<8[8:1],2,3/5,4,5/1p5[8:1],4,3/1,2,
5/1<6[8:1],3/7,5/1,4,3/5>2[8:1],7/4,8/5,1,
2-6[8:1],1,7-4[8:1],8,5,3h[4:1],{16}4,5,{8}6,
8/2-8[8:1],7,6/2,5,4/8v3[8:1],5,6/8,7,
8/4>1[8:1],7,6/4,5,4/8q4[8:1],5,6/8,7,
4/8>3[8:1],6/2,4/8,5,6/4<7[8:1],2/5,1/4,8,
7-3[8:1],1,{4}4pp4[16:5]*qq4[16:5],{8},,,,1,
3,{4}4,{8}2,4,{4}5,
{8}3,5,{4}6,{8}4,6,{4}7,
{8}8,6,{4}5,{8}7,5,{4}4,
{8}6,4,{4}3,{8}5,2,{16}3,4,{8}5,
{16}6,,,4,{8}4,3,{4}2,{8}3h[16:1],4,
5,4,6,7,{4}8h[4:1],1-5[4:3],
E
