&title=ミラ一ジュ·フレイグランス
&artist=Sound piercer "Espitz"
&first=0
&des=东云纺(* ̄3 ̄).jpg
&des_5=
&lv_5=14
&inote_5=(158){4},{2},,,{16}6,
5,,4h[16:29]/7<8[16:25],
{1},,{48}6h,
5h,,,,,,,,{16}3h,{8},7h,{16},2h,{8},8h,1h,
{12}6,5,7,3,4,2,8,1,7,{48}3,{24},{48}4,,,,,,{16}2<3[16:25]/5p3[16:25],
{1},,{16}1/2,
{8},{16}2/4,{8},4/5,{16},7/5,{8},7/8,1/2,
{16}3,4,3,7,5,7,1,8,{32}2,3,4,5,6,7,8,1,{4}6/2,
{8}8/7,6,{16}1,5,,4/2h[16:3],{8},8,{16}7,3,,5/6h[16:3],
{8},4,{16}4,5,,5/3h[8:1],,6,5,7h[8:1],,2,6,3,
{8}5,2/4,{16}5,4,7,5h[8:1],{8},5/6,{16}4,5,2,4h[8:1],
{8},3/4,{16}8,1,7qq5[16:3],2pp4[8:1],{2},{8}1b/8b,
7/2,{16}3,5,4,7h[16:3],{8}5,3,{16}7,5,6,3h[16:3],
{8}4,5,{16}4,5,3,6h[8:1],,3,4,2h[8:1],,6,{8}3,
7/5,4/8,{16}7-3[32:3],3,,7b/1b,{8},2,{16}2-5[32:3]*-6[32:3],8,,2b/1b<3[16:11],
,,,,,,,1h[16:7],{2},{8}1/8,
{16}6,7/5,,3,{8}4/2,{16}7,8/6,,2,{8}1/3,8/4,
{16}6/5,{8},{16}6/5,{8},7h[2:1]/5>1[8:3],{2},{16}6,
{8},{16}6,{8},7h[8:1],{16}8h[16:3],{8},{16}6h[16:3],{8},5,
{16}4/7,{8},{16}4/7,{8},5/2>5[4:1],,6,,7h[4:3],
{16}5,{8},{16}5,{8},4-1[8:1],{4},{16}7,8,,6,
5,{8},{16}3/4,{8},2h[8:3]/4<8[4:1],,,,1,
{16}2,3,4,5/6,{8},7h[4:1]/5p1[16:3],{4},{16}8,7,6,5,
4/2,{8},{16}2/4,{8},3h[4:1]/5<1[4:1],{4},{8}3,4,
{16}5h[8:3],{8},{16}8,{8},7,{4}6h[8:1]/4h[8:1],8h[8:1]/2h[8:1],
{8}3/4,1,3/5,{16}2,4,,5,{8}3,6/2,4,
7/5,8,{16}6,5,{8}7,8/4,5,7/4,6,
7/3,{16}1,8,{8}2,1,3/8,2,1/4,{16}2,3,
{8}7/4h[8:1],6,8/5h[8:1],7,{16}5/1,8,7,6,1/5,2,3,4,
{8}6h[8:1],{16}5,7,5,6,5,7,5,6,5,7,5,6,1,8,
{8}3h[8:1],{16}4,2,4,3,4,2,4,5,6,7,1,2,3,4,
{8}8/5,7,{16}4,6,{8}2h[4:1],{24}4,5,6,7,{12},{8}8/3,1/6,
{16}2,4,3,6,4,5,{8}3h[8:1],{16}7b,5,6,3b,5,4,{8}6b,
5b/4b,4/5h[8:1],{16}3,4,,5h[8:1]/6h[8:1],{8},5/6,{16}3,4,,5h[8:1]/7h[8:1],
{8},5/7,{16}3,4,,4h[8:1]/8h[8:1],{8},8/4,{4}1-5[8:1]/5-3[32:3],
1b/5bV74[4:1],{16}4,{8},{16}2b-6[8:1],{8},6,{16}8-3[8:1]*-5[8:1],{8},{16}8b,
{4},2-5[8:1]/6-2[8:1],{2}6b>3[8:1]/2b<7[8:1],
{8}1b/8b,2/7,{16}6,5,7,3,{8}4,4/3,{16}6,5,7,2,
{8}4,2/4,{16}6,5,7,1,{8}5,1/5,{4}8-4[8:1]/4-6[32:3],
4b/8b,{16}7,3,,5/6h[8:1],,4,{8}5,4/2,{16}3,5,
{8}1h[8:1],{16}6,4,{8}8h[8:1],{16}3,6,{12}2b,1b,3b,7b,8b,6b,
{8}5/1,4/3,{24}6/2>8[4:1],7/3,8/4,1/5h[8:3],,,,,,,,,,,,{16}4,3,
1/2,8,7,6,4/5,3,2,1,7,8,6,1,5,2,4,3,
{8}5,6/4,{24}3/7<1[4:1],2/6,1/5,8/4h[8:3],,,,,,,,,,,,{16}5,6,
7/8,1,2,3,4/5,6,7,8,2,1,3,8,4,7,5,6,
{8}3h[8:1],{16}5,4,6,4,5,4,6,4,5,4,6,4,7,3,
8b,1,8,1,4b,2,4,2,5b,4,5,4,7b,5,7,5,
6b,2,6,2,6,2,8b,1,7,1,8,1,7,1,8,1,
{8}6h[4:1],{16}2,1,8,7,6,5,8/4,7/3,6/2,5/1,4,3,2,1,
{8}4b/8h[8:1],{16}5,6,4,5,3,4,2b,7,4,6,3,5,2,4,
1b,7,3,6,2,5,1,4,8b,6,3,6,1b,7,5,7,
{8}2h[8:1],{16}4,3,5,4,6,5,7b,2,4,2,8b,3,6,3,
1,4,8,4,7,4,6,4,5,3,5,2,5,1,5,8,
{4}4b>5[2:1],{2},{16}4,3,2,1,
{24}5,6,7,1,2,3,6,7,8,2,3,4,{12}1b,5b,7b,3b-7[32:3],5b,1b,
{1}3bqq6[1:1]*>5[1:1],
{8},,,4,{16},6,5,6,3,4,{8}3,
{16}5h[8:1]/4h[8:1],{8},{16}3h[8:1]/6h[8:1],{8},8h[8:1]/1h[8:1],{16},2,{24}8,7,6,5/4,3,2,8,7,6,
5/4,3,2,8,7,6,5/4,3,2,8,7,6,{4}1b/5h[4:1],{32}2,3,4,5,6,7,8,1,
{1}2b/6b,
,{2}6h[2:1],
4h[2:1],
{4}5,5,{16}5,{8},{16}4,{8}6,3,
7h[8:1],5,7h[8:1],8,6h[8:1],5,6h[8:1],7,
2h[8:1],4,2h[8:1],1,{16}3h[8:1],{8},{16}4,{4}3h[8:1],
{8}2/7,6,{16}4,5,{8},7/2,{16}3,5,4,6,5,7,
2b,4,3,7b,5,6,1b,8,{4}2h[4:1],{32}7,6,5,4,3,2,1,8,
{8}7/5<8[8:1],4,3/5-1[8:1],4,1/5,{16}8,7h[8:1],,2,{8}3-5[32:3],
6,5/3qq8[32:15],,3/6,{4}7-4[32:3],7b,
{8}2/4>1[8:1],3,{16}7/4<7[8:1],6,{8}5,8/4-8[8:1],2,4,6,
1b/7h[8:1],5,8b/2h[8:1],4,6/3,{16}8h[16:3],1h[8:1],{8},7/2,
{2}3bs7[8:1]/6bz2[8:1],{24}3,4,5,8,7,6,2,3,4,7,6,5,
1,2,3,4,5,6,2,3,4,5,6,7,1,8,1,8,1,8,1,8,1,8,1,8,
{8}2b,3/4,5/4,6/5,{16}7,4,5,2,8,3,6,1,
{24}7b-3[8:1],3b,7b,3b,7b,3b,{8}7b,1,2/4,5/3,4/6-2[32:3],7/5,
{1}8b/6bpp1[2:3]*qq3[2:3],
,{2}2h[2:1],
4h[2:1],
5h[2:1],{4}7h[4:1],8,
{2}6h[4:1]/1>4[16:3],{12}6,5,5,6,4,4,
{8}3h[4:1]/8<5[16:3],{4},{16}3,3,4,{8},{16}5/3,{8},6/4,
1,2,8,7,{12}3,4,2,6,5,7,
{16}2,2,1,3,7,7,8,6,{32}3,4,5,6,7,8,1,2,{4}3b/6b,
{16}8,2,6,2,4,2,6,2,8,4,8,6,8,4,8,2,
5,1,5,3,7,5,7,1,{24}8,1,8,1,8,1,8,1,8,1,8,1,
{4}8bw4[8:1],8b,{32}1b/2b,3,{16}4,,{32}7b/8b,6,{8}5,3b/6b,
5b/2b-6[8:1],{16}3,4,{8}2,8b-4[8:1],{16}7,5,{8}8,{4}1b,
{8}1b/2b,{16}8/7,6,3/5,2,{8}1h[8:1],4,{16}5/3,2,8/1,7,{8}6/4,
7b/8b,{16}1/2,3,6/4,7,{8}8h[8:1],5,{16}4/6,7,1/8,2,{8}5/3,
{24}1b,2,3,7b/4,6,5,1b/4,2,3,7b/4,6,5,2b,3,4,8b/5,7,6,2b/5,3,4,8b/5,7,6,
{16}5b/2b,2b,4b,3b,{8},{16}7b/4b,7b,5b,6b,{32}1,2,3/7,4/8,{4}1-6[32:3]/5-2[32:3],
{1}1bq3[1:3]/5bq7[1:3],
{2},,,,,8h[2:1],
{8}5>6[8:29],{4},,,{16}7,6,
{1}5p5[8:21],
E
