&title=Baddest
&artist=樋口楓
&first=0
&des=はっぴー affected by MCV_001
&wholebpm=215
&shortid=11503
&genre=POPSアニメ
&cabinet=DX
&des_7=はっぴー affected by MCV_001
&lv_7=转
&inote_7=(215){1},
{1},
{8}4/6,3,3,4/5,6,7<4b[32:3]/8>3b[32:3],,{32}7bx/8bx,1/6,2/5,3/4,
{1},
{8},,,,,1<6b[32:3]/2>5b[32:3],,{32}1bx/2bx,3/8,4/7,5/6,
{1},
{8}5/7,5/7,,2/4,,1-5[8:1]/8-4[8:1],,1b/8b,
{8},6,6,8,8,1,1,3,
{8}3,5,5,4/6h[4:1],,5,,4/7,
{8},2/5,5/2-6[8:1],,2/7-3[8:1],,7/1-5[8:1],,
{8}1/8-4[8:1],,3/8,3,,2/5,1V35V71>1b[2:1]/5,,
{32}1bx,2,3,4,5,6,7,8,1x,2,3,4,5,6,7,8,1bx,2,3,4,5,6,7,8,1x,2,3,4,5,6,7,8,
{32}1bx,2,3,4,5,6,7,8,1x,2,3,4,5,6,7,8,1bx,2,3,4,5,6,7,8,1x,2,3,4,5,6,7,8,
{32}1bx,2,3,4,5,6,7,8,1x,2,3,4,5,6,7,8,1bx,2,3,4,5,6,7,8,1x,2,3,4,5,6,7,8,
{32}1bx,2,3,4,5,6,7,8,1x,2,3,4,5,6,7,8,1bx,2,3,4,5,6,7,8,1x,2,3,4,5,6,7,8,
{32}1bx,2,3,4,5,6,7,8,1x,2,3,4,5,6,7,8,1bx,2,3,4,5,6,7,8,1x,2,3,4,5,6,7,8,
{32}1bx,2,3,4,5,6,7,8,1x,2,3,4,5,6,7,8,1bx,2,3,4,5,6,7,8,1x,2,3,4,5,6,7,8,
{32}1bx,2,3,4,5,6,7,8,1x,2,3,4,5,6,7,8,1bx,2,3,4,5,6,7,8,1x,2,3,4,5,6,7,8,
{32}1bx,2,3,4,5,6,7,8,1x,2,3,4,5,6,7,8,1bx,2,3,4,5,6,7,8,1x,,,,,,,,
{4}2/7-5[8:1],2,2/4-8[8:1],2,
{4}3/7-5[8:1],3,3/4-8[8:1],3,
{4}2/7-5[8:1],2,2/4,1/5,
{8}6>3b[32:3],,{32}6bx,5,4,3,2,1,8,7,{8}6x,,2/8,,
{8}6h[4:1],,5,,4/7h[4:1],,5,5,
{8}6,6,1,1-5[8:1],,8,8<4b[8:1],,
{32}8bx,7,6,5,4,3,2,1,8x,7,6,5,4,3,2,1,8bx,7,6,5,4,3,2,1,8x,,,,,,,,
{4}4,2-7[8:1]/6-3[8:1],,1x/5x,
{8}2,2,4,,1/5,,6,6,
{8}5,5,7h[4:1],,1,1,8,,
{4}2-4[8:1],8-6[8:1],1-5[8:1],8,
{8}7,7,1,1,2/4,,5/7,,
{8}8-5[8:1],,8/1-4[8:1],,1/8h[4:1],,5,5,
{8}6,,4/7,4/7,,1,1>5b[8:1],,
{32}1bx,2,3,4,5,6,7,8,1x,2,3,4,5,6,7,8,1bx,2,3,4,5,6,7,8,1x,2,3,4,5,6,7,8,
1bx,2,3,4,5,6,7,8,
{4},8,1>7b[16:3],
{32}1bx/C1f,2,3,4,5,6,7,8,1x,2,3,4,5,6,7,8,1bx,2,3,4,5,6,7,8,1x,2,3,4,5,6,7,8,
1bx,2,3,4,5,6,7,8,
{4},,8<2b[16:3],
{32}8bx,7,6,5,4,3,2,1,8x,7,6,5,4,3,2,1,8bx,7,6,5,4,3,2,1,8x,7,6,5,4,3,2,1,
8bx,7,6,5,4,3,2,1,,,,,,,,,
{2}1x/2x,
{8}2h[4:1]/5h[4:1],,,3h[4:1]/6h[4:1],,,4h[4:1]/7h[4:1],,
{8},5/8,5/8,,7h[4:1],,5,,
{8}4h[4:1]/7h[4:1],,,3h[4:1]/6h[4:1],,,2h[4:1]/5h[4:1],,
{16},,1/4,,4/1-5[8:1],,,,5b,,,7b,,,2b/8b,,
{4},5xh[4:1]/7xh[4:1],,2xh[4:1]/4xh[4:1],
{4},4xh[4:1]/6xh[4:1],,3xh[4:1]/5xh[4:1],
{4},1xh[4:1]/7xh[4:1],,2xh[4:1]/8xh[4:1],
{4},5/6V84[8:3],,,
{8}3xh[4:1],4x,5x,6h[4:1],4,3,2h[4:1],5,
{8}6,7h[4:1],5,4,3h[4:1],4,5,,
{8}5x/6x,4x/7x,,3x/4x,2x/5x,,4b/5b,3b/6b,
{8},,1x-4[8:1]/8x-5[8:1],,8x/1<2b[32:7],,{32}1bx,8x,7x,6x,5x,4x,3x,2x,
1x,8,7,6,5,4,3,2,1bx,8,7,6,5,4,3,2,
{8}1,,7,7,
{8}1/8-4[8:1],,3,3,,2-7[8:1]/6-3[8:1],,2/6,
{8},1/5,1/5,,6-1[8:1],,4/6,,
{8}3-8[8:1],,3/5,,7h[4:1],,5,5,
{8},4/6,4/6,,7,8,1,2,
{8},4/6,,1/8,,5/3<1b[16:3],,{32}1b/3bx,4,5,6,
7,8,1,2,3x,4,5,6,7,8,1,2,
{8}3bx,4,,1/5,1h[4:1]/5,
{8},8,8-4[8:1],,8b/3b<2b[32:7],,{32}6bh[2:1]/3bx,4x,5x,,7,8,1,2,
3x,4,5,,7,8,1,2,
{4}3bx,5/7,3,
{8}8/1-5[8:1],,6,6,,3-5[8:1]/7-5[8:1],,3/7,
{8},4/8,4/8,,3-8[8:1],,3/5,,
{8}6-1[8:1],,4/6,,2h[4:1],,4,4,
{8},3/5,3/5,,2/6,2/6,,1>4b[8:1],
{8},{32}1bx/8<5b[8:1],2,3,4,,,,,8bx/1>4b[8:1],7,6,5,,,,,1bx/8<5b[8:1],2,3,4,,,,,8bx/1>4b[8:1],7,6,5,
{8},{32}1bx/8<5b[8:1],2,3,4,,,,,1/8bx,7,6,5,{8},2/6,2/6,,
{4}7-5[8:1]/8-4[8:1],7/8,1-5[8:1]/2-4[8:1],1/2,
{4}6-3[8:1],6/2-7[8:1],2/5-1[8:1],5/3-8[8:1],
{4}3/7-3[8:1],7/1-5[8:1],1/4-8[8:1],4,
{8}2x/6x,,1,2/8,,5,6/4<3b[32:7],,
{32}4bx,5,6,7,8,1,2,3,4x,5,6,7,8,1,2,3,4bx,5,6,7,8,1,2,3,4x,,,,,,,,
{4}5b,8bh[4:11],,,
{1},
{1},
{4},,1-5[8:1]/7-4[8:1],1b/7b,
{8}3/6,7,8-4[8:1],4,3>8b[8:1],,{32}6/3bx,2,1,8,{8}6h[4:1],
{8},4,2,1-5[8:1],7-3[8:1],1,7,,
{8}2<7b[8:1],,{32}4/2bx,1,8,7,{8}5>2b[8:1],,{32}7/5bx,4,3,2,{8}8x,8xh[4:1],
{8},5,5,4,3/5,2/6,2b/6b,,
{8}4h[8:1]/7h[8:1],,5h[8:1]/8h[8:1],,4/7,4/7,,2/4,
{8},1/2,,7/8,7/8,,4/6,,
{8}2h[8:1]/5h[8:1],,1h[8:1]/4h[8:1],,2/5,2/5,,5/7,
{8},7/8,,1/2,1/2,,3/5,,
{4}7V51[4:1],4/7,2V48[4:1],2/5,
{4}6V84[4:1],3/6,3V15[4:1],3/6,
{8}7h[4:1],,8,1/6,,1/2,3/8>7b[32:7],,
{32}C1f/8bx,1,2,3,4,5,6,7,8x,1,2,3,4,5,6,7,{4}8bx,1x/8x,
{8}6>3b[8:1],,{32}2/6bx,5,4,3,{8}2h[4:1],,1,1,,
{8}6,6,4-1[8:1],,7-4[8:1],,2,,
{8}3<6b[8:1],,{32}7/3bx,4,5,6,{8}7h[4:1],,8,8,,
{8}3,3,5-7[8:1],,1-3[8:1],,8,,
{8}7-3[8:1],,2,2h[4:1],,4,4,,
{8}6,6,1-5[8:1],,7-3[8:1],,3,,
{8}2<7b[8:1],,{32}6/2bx,1,8,7,{8}6h[4:1],,5,5,,
{8}3,3h[4:1],,4-8[8:1],,2,2,,
{16}5x/8x,,,3,,,2,,1x/4x,,,6,,,7,,
{16}5x/8x,,,3,,,2,,1x/4x,,,6,,,7,,
{8}5x/8x-4[8:1],,4,3-7[8:1],,5-8[8:1],,8,
{8}1>8b[32:7],,{32}C1f/1bx,2,3,4,5,6,7,8,1x,2,3,4,{8}5,,2x/7x,
{8},3/4,1-5[8:1],,1/6,7h[4:1],,4,
{8},5/6,8-4[8:1],,3/8,2>1b[32:7],,{32}C1f/2bx,3,4,5,
6,7,8,1,2x,3,4,5,6,7,8,1,2bx,,,,
{4},1x/8x,
{16}4/6,,,3/7,,,2/8,,1/7,,,2/6,,,3/5,,
{1},
{1},
{96}D1f,A1f,D2f,A2f,D3f,A3f,D4f,A4f,D5f,A5f,D6f,A6f,D7f,A7f,D8f,A8f,E1f,E2f,E3f,E4f,E5f,E6f,E7f,E8f,B8f,B1f,B2f,B3f,B4f,B5f,B6f,B7f,Cf,,,,,,,,,,,,,,,,,,,,,,,,,,,,,,,,,,,,,,,,,,,,,,,,,,,,,,,,,,,,,,,,
{8},,,,,,,1/8,
{16},,3/6,,3/6,,,,,,4,5,3,,3,,
{8}3/5,3/5,6,6,4/6,7/3<6b[8:1],,{32}8h[4:1]/3bx,4,5,6,
{8},1,1,,3,4,5,6-1[8:1],
{8},5/6,,3-8[8:1],,3/4<3b[32:7],,{32}C1f/4bx,5,6,7,
8,1,2,3,4x,5,6,7,8,1,2,3,4bx,,,,
{4},1xz5[4:1]/8xs4[4:1],
{4},,2-5[8:1]/7-4[8:1],2b/7b,
{32}1b,2b,3b,4b,5b,6b,7b,8b,1bx/5bx,,,,,,,,,,,,,,,,6,,,,,,,,
{8}1/8-4[8:1],,3,3,,2-4[8:1]/6-4[8:1],,2/6,
{8},1/5,1/5,,6-1[8:1],,4/6,,
{8}3-8[8:1],,3/5,,6h[4:1],,5,5,
{8},1/7,1/7,,2/6,2/6,,5<8b[8:1],
{32},,,,5bx/4>1b[8:1],6,7,8,,,,,4bx/5<8b[8:1],3,2,1,,,,,5bx/4>1b[8:1],6,7,8,,,,,4bx/5<8b[8:1],3,2,1,
{32},,,,5bx/4>1b[8:1],6,7,8,,,,,4bx/5,3,2,1,,,,,{8}2/6,2/6,,
{4}1-5[8:1]/2-4[8:1],1/2,7-5[8:1]/8-4[8:1],7/8,
{4}3-6[8:1],3/7-2[8:1],7/4-8[8:1],4/6-1[8:1],
{4}6/2-6[8:1],2/8-4[8:1],8/5-1[8:1],5,
{8}3x/7x,,1,2/8,,5,4/6,,
{8}7,7V15[8:3],,5,5,,3,,
{4}6b-3[8:1],6b/2b-7[8:1],2b/5b-1[8:1],5b/3b-8[8:1],
{4}3b/7b-3[8:1],7b/1b-5[8:1],1b/4b-8[8:1],4b,
{8}2x/6x,,8,1/7,,4,3/5>6b[32:7],,
{32}5bx,4,3,2,1,8,7,6,5x,4,3,2,1,8,7,6,5bx,4,3,2,1,8,7,6,
{8}5x,4b,
{4},1bh[4:3]/8bh[2:1],,,
{8}7,2/8,2/8,,3/4,3>8b[32:3]*-8b[32:3]*-7b[32:3]/4<7b[32:3]*-7b[32:3]*-8b[32:3],,{192}3bx/4bx,,,D3f/D5f/E3f/E5f,,,2/5/B2f/B5f,,,D2f/D6f/B1f/B6f/Cf,,,1/6/E1f/E7f,,,D1f/D7f,,,7/8,,,,,,
{1},
{1},
{1},
E
