&title=ドッペルゲンガー
&artist=はるまきごはん
&first=0.01
&des_5=Purple Phantom "Mikage"
&lv_5=14
&des=Purple Phantom "Mikage"
&inote_5=(217){1},
{4}Ch[4:10],,,,,,,,,,,,
{4}E7h[4:4]f,E6h[4:4]f,E3h[4:4]f,E4h[4:4]f,,,,,
{8}7h[4:1],,1,1,8-6[8:1],,,,2h[4:1],,7,7,1,,E3/B2,,
{8}8h[4:1],,1,1,2-4[8:1],,,,7h[4:1],,2,2,7,3,8,,
{8}5,5,3h[8:1],,E7/B6,,B4/E4,,6,6,3h[8:1],,E6/B5,,B3/E3,,
{8}7,6,4,3,6,5,3h[4:1],,1-5[4:2],,,,,,,,
{8}2x-4[8:1],,1,,8,8,1,,8-6[8:1],,1,,2,2,1,,2-4[8:1],,1,,8,8,1,,7^5[8:1],,8,,1^3[8:1],,8,,
{8}7x-5[8:1],,1,,2,2,1,,2-4[8:1],,8,,7,7,8,,7-5[8:1],,8,,1,1,8,,2^4[8:1]/B6h[12:1],,,,8^6[8:1]b/B3h[12:1],,,,
{8}1bx-7[8:1],,6,,5,5-7[8:1],,5/1-3[8:1],,1,,7,7-3[8:1],,1,,
{8}1-3[8:1],,4,,5,5-3[8:1],,5/1-7[8:1],,1,,4,4-7[8:1],,1,,
{8}2-4[8:1],,5,,7,8-6[8:1]/2,,8/2-4[8:1],,1/2,,8,2/8,7,6/1,1,
{16}8bx,7,8,7,8,7,1x,7,1,7,1,7,2x,7,2,7,2,7,3x,7,3,7,3,7,
{4}3xh[4:1],,
{1}3bqq1qq7qq5qq3[4:30],,6xh[1:2],,,,7xbh[4:7],,
{8}8,,2,2,2-4[8:1],,7,,8,,7,8,2-4[8:1],,,,7,7,1,8,/2-4[8:1],,,,7h[8:2],,8,1,2,,7/1,,
{16}1x,2x,3x,,8x,7x,6x,,2x,3x,4x,,7x,6x,5x,,1x,2x,3x,4x,5x,6x,7x,8x,1x/E6,E5,E4,E3,E2,E1,E8,E7,
{1}A5h[4:6]f/E6h[4:4]f/B5h[4:5]f,
{4}A8/B8/E1,A1/B1/E2,A2/B2/E3,,
{4}2b-4[8:1],1-5[8:1]/2,1/8-6[8:1],1>5[4:1]/8,1/5V38[16:5],7-3[6:1]b,7,,
{4}7-5[8:1],8-4[8:1]/7,8/1-3[8:1],8V64[4:1]/1,8/4xV28[4:1],8w4[6:1]b,,,
{8}2^5[6:1],,1,8,7-2[6:1],,6,5,4^7[6:1],,3,2,1-4[6:1],,7,6,
{8}5,5,{16}4,,4,,{16}7,1,7,,2,8,2,,
{8}1x-3[8:1],1x-7[8:1],1x-4[8:1],1x-6[8:1],1x-5[6:1]b,1x,1x,,
{8}7x,,8-4[8:1]/1,,8-6[8:1]/2-6[8:1],,2^5[4:1],,5V38[16:5],,7-3b[6:1],,,,,,
{8}1x-5[8:1],,1/8,,1-3[8:1]/7-3[8:1],,7^4[4:1],,4V61[16:5],,2v5b[6:1],,,,,,
{1}7xh[1:1],
{16}2,3,4,5,8,7,6,5,4/1bxh[8:1],,,1bxh[8:1]/4xh[8:1],,,2x/5x,,
{1}6x/3xqq5[8:5],
{4}6h[8:1],6h[8:1]/8^3[8:1],8x/6h[8:1],5h[8:1],{8},6,6h[8:1]/8-4[8:1],,6h[8:1]/8x,,6h[8:1],,
{4}3h[8:1],3h[8:1]/1^6[8:1],1x/3h[8:1],4h[8:1],{8},3,3h[8:1]/1-5[8:1],,3h[8:1]/1x,,3h[8:1],,
{1}8-4[16:29],{4},,8-4[8:1]b,8,
{8}7bx-3[8:1],1,7,2v5[8:1],8,2<5[4:1]b,,2bx,,,
{8},8,7/1,6,5/3,2,1x-5[8:1],8,1,7,7x-3b[8:1],2,7,1,8xh[8:3]/4xh[8:3],,,,
{4}1h[8:1]/5h[8:1],2h[8:1]/6h[8:1],
{256}3bqq4[4:13]b,7xqq8[4:13],{128},{64},{32},{16},{8},{4},{2},{1},,,
{1}6h[1:2],B2/E2,3h[1:2],E7/B6,
{4}8,{8}1,1,{4}2>4[8:1],7,
8,{8}7,8,{2}2>4[8:1],
{8}7,7,{4}1,{2}7/2-4[8:1],
{4}7h[4:1],{8}1,1,{4}2,7/1,
{16}1x,2x,{8}3x,{16}8x,7x,{8}6x,{16}2,3,{8}4,{16}7,6,{8}5,
{16}2,3,4,5,8,7,6,5,4x/1,2,3,4,5,6,7,8,
{1}1/A5fh[2:3]/E6fh[1:1]/B5fh[4:5],
{4}1b,2b,{2}3b,
{4}7b-1[8:1],7-3[8:1]/3-5[8:1],7x/3x-1[8:1],3x/8<4[4:1],
8/4V61[16:5],2-6b[6:1],{2}2,
{4}2-5[8:1],2/1-4[8:1],1/8v3[8:1],8/1V35[4:1],
1/5xV71[4:1],1w5b[6:1],{8},,,,7b-4[6:1],
7,8,1,2-7[6:1],2,3,4,
5b>2[6:1],5,6,7,8-5[6:1],8,2,3,
{16}4b,,4,,3bx,6,3,6,{16}2bx,7,2,7,1bx,8,1,8,
{32}1b,2,3,4,5,6,7,8,1b,2,3,4,5,6,7,8,{4}1bw5b[8:1],A1f,
7x,1/8-4[8:1],8-6[8:1]/2-6[8:1],2>4[8:1],
2v5[8:1]/8v5[8:1],8-4b[8:1],{2}8b,
{4}1x-5[8:1],1/7-4[8:1],1-3[8:1]/7-3[8:1],7<5[8:1],
7-3[8:1]/2-8[8:1],2v5b[6:1],{2}2b,
{4}C/2-6b[8:1],2b/7<5[8:1],{8}7-1[8:1],2,7,4,
{24}7,6,5,4,3,2,1,8,7,4/6V82[16:3],,,{2}4bxh[4:1],
{4}C/3-7b[8:1],3b/8<6[8:1],{8}8-2[8:1],3,8,5,
{24}8,7,6,5,4,3,2,1,8,5/7p3[16:3],,,{2}5xh[4:1],
{4}C/2-6b[8:1],2b/7-5[8:1],{8}7-1[8:1],2,7,4,
{24}7,6,5,4,3,2,1,8,7,6/3,,,{4}1b/5-1[8:1],5/3qq5<1b[4:7],
{1}3b,
{8},,,,,,,,5h[4:7],,,4xh[8:1],,,,,{2}3,2,
{8}1-4b[2:3],,,8xh[8:1],,,,,{2}7,6,
{1}5-8[4:7],,
{1}Ch[4:16]f,E6,B6/E7,B8/E8/B7,
{1}8b,
E
