&title=少女レイ
&artist=みきとP feat.初音ミク
&first=0
&des=弱者
&lv_5=13+
&inote_4=
&inote_5=(150)
{1},
{16},3?-6[8:4]*<6[8:4],,,,,,,,,,,,,,,
{8}4hx[8:2],,B6,,3,3,5,
5,4,,B4,B6,B2,,5h[8:2],,
2>5[8:2],,6,,6,6,4,4,
5,,B5,B3,B7,,4h[8:2],,
7<4[8:2],,3,,2,2,4,4,
3,,B1,B7,B3,,8h[8:2],,
1>4[8:2],,6,,7,7,5,5,
6,,B8,B2,B6,{16}1,8,2bx/7bx,,,,
2,,,,2>5[8:3],,,,5,,,,6,,,,
7<4[8:2],,,,4,,,,3,,,,2h[8:2],,,,
8p4[8:2],,,,4,,,,3,,,,1q5[8:2],,,,
5,,,,6,,,,7-3[8:2],,,,,,4,,
4h[8:2],,,,8<4[16:5],,,,4,,,,3,,,,
1>5[16:3],,,,5,,,,6,,,,7,,,,
3h[8:1]/5h[8:1],,,,6h[8:1]/4h[8:1],,,,1-5[8:2],,,,6,,,,
B6/E7,,,,B7/B8,,,,E6/B3/E3,,,,4b,,,,
5-7[8:1],,,3,5,,2,,8-4[8:1],,1,,8,,2,,
2pp4>1[8:5],,,,,,8,,8<5[8:1],,,,8,,,,
6h[8:2],,,,5h[8:2],,,,4h[8:2],,,,3h[8:2],,,,
6pp4[8:4],,,,2-4[8:2],,,,,,,,A4,,,,
4-2[8:1],,,5,4,,6,,1-5[8:1],,8,,1,,7,,
7pp1<6[8:5],,,,,,5,,5>2[8:1],,,,5,,,,
3h[8:2],,,,4h[8:2],,,,5h[8:2],,,,6h[8:2],,,,
3,,,,4/7h[8:2],,,,6,,4,,8,,1,,
{1}2qq4[8:20]/6-4[8:4],4-7[8:4],6pp4[8:4],
{16}3h[16:3]/5h[8:1],,,,6h[16:3]/4h[8:1],,,,2h[16:3]/5h[8:1],,,,8h[16:3]/4h[8:1],,,,
3/7,,3/6,,5/2,,5/1,,2,6,4,5,1-5[8:1],,,,
1b/5,,,6,7<4[8:1],,8,,7/1,,,,3>8[8:1],,4,,
3/5pp4>1[8:4],,,,,,1,,1<5[8:2],,,,4,,3,,
2>5[8:1],,,1,2/8p4[8:1],,,,3p7[8:1],,,,5-1[8:1],,,,
5>7[16:5]/4,,,,7,,6,,5h[8:2],,B7/B8,,B3/E3,,,,
5<8[8:1],,,2,5/1-5[8:1],,2,,1/3,,,,4-8[8:1],,2,,
1s5>2[8:5]/4,,,,E6,,,,E7,,,,E8,,,,
8-4[8:1],,,2,8,,,,2-5[8:1]/5<8[8:1],,,,5-1[8:1],,,,
5qq1[8:3]/7,,,,8,,8,,7,,7,,6,,6,,
5b/1b,,,3,2>5[8:1],,1,,2/8,,,,8<5[8:1],,2,,
8/4-8[8:1],,,3,4,,2,,1>5[8:2],,,,8,,7,,
6<1[8:1],,,5,6/4p8[8:1],,,,7p3[8:1]/4,,,,1-5[8:1],,,,
1>6[16:5]/2,,,,6,,7,,8h[8:2],,B5/B6,,B3/E3,,7,,
4-8[8:1],,,5,4,,7,,7<4[8:1],,8,,1/7,,,,
2-6[8:1],,,6,7-4[8:1],,8,,3-8[8:1],,,,7,,6,,
3qq5[8:5]/6pp4[8:5],,,,,,,,,,,,,,,,
3b,,5,4,5,,3/6,,2/5,,4/7,,2/6,,8w4[8:6]/4,,
,,,,,,,,,,,,,,,,
5x-1[8:1]/4x-8[8:1],,,,5b/4b,Cf,,,2>5[8:1],,1,,2/8,,,,
7,,7,,6v1[8:1],,,5,6/4,,3,,3-5[8:1],,,,
6,,6,,7q3[8:1],,,,4>1[8:1]/7qq5[8:1],,,,7/4-7[8:1],,,,
1-5[8:1]/4,,,,6>1[16:5]/1,,,,8,,7,,6h[8:2],,B7/B8,,
B3/B4,,,,1q5[8:1],,,8,1,,7,,7p3[8:1],,,,
3/7,,2,,1>4z8[8:4],,,,E8,,,,E7,,,,
E6,,,,5-1[8:1],,,2,5,,,,7-4[8:1]/4>1[8:1],,,,4-8[8:1],,,,
4pp8[8:3]/2,,,,1,,1,,2,,2,,3,,3,,
4b/8b,,,2,4<2[16:3],,3,,4-8[8:1],,,,
4,,6,,7-4[8:1],,,3,7>4[8:2],,,,1b-5[8:1]/7,,,,
1,,6,,5p1[8:1],,,,5<8[8:1]/1p3[8:1],,,,5>2[8:1],,,,
8-4[8:1]/5,,,,8/5>8[16:5],,,,7,,6,,5h[8:2],,B7/B8,,
B3/B4,,6,,6-1[8:1],,7,,2-5[8:1],,3,,8-4[8:1],,7,,8,,,,
1-5[8:1],,,8,1,,6,,6-1[8:1],,,4,
6,,3,,1pp3[8:2]/5pp7[8:2],,,,,,,,,,B2,,
B6,,B4,,2/6,,3,4,3,,6,,3/7,,6,5,
6-1[8:1],,7,,4-8[8:1]/6,,,,7/4,,,,1s5[16:2],,6,,
6,,,,7-4[8:1],,,3,7,,1,,1-5[8:1],,,8,
1,,6,,6pp1[8:4]/2pp5[8:4],,,,,,,,,,,,
,,,,2>5[8:1],,1v6[8:1],,2,,1,,,,7,8,
1b-5[8:1]/6b,,,,1/6-8[8:1],,7,,6/2-4[8:1],,3,,5-1[8:1]/2-5[8:1],,6,,
2/5,,,,1/6,,8,7,8-4[8:1],,1,,8/5-7[8:1],,6,,
5/1-3[8:1],,2,,1-5[8:1]/7-4[8:1],,6,,7-3[8:1]/1,,,,2-8[8:1]/7,,1,,
2-5[8:1],,,,4b-7[8:1]/2,,,,2-5[8:1]/4-8[8:1],,1,,4>1[8:1]/2,,,,
6b,,,,2/5,,3,4,3,,1-5[8:1]/6,,2,,1/6,,
7-4[8:1],,,,3/7,,2,2,1-3[8:1],,2,,5-1[8:1]/1,,6,,
5/4<2[16:3],,3,,5/4,,,,8x-4[8:1],,,,3-8[8:1]/8,,,,
5/3,,,,2/5,,3,4,2,,6,5,7,,1/8,,
2b/7b,,,,1/6,,8,7,8-4[8:1],,1,,7-3[8:1]/8,,6,,
7/8,,,,8/3,,1,2,1-5[8:1],,8,,2-6[8:1]/1,,3,,
2/1,,,,3/6,,4,5,4-8[8:1],,3,,5-1[8:1]/4,,6,,
5/4,,,,2/7,,1,8,1-5[8:1],,2,,8-4[8:1]/1,,7,,
1/8,,,,3x,,,3,4-8[8:1],,5,,7/4,,6,,2-5[8:1]/5
,,,,8x,,,6,7-4[8:1],,4,,7/3,,2,,
1-5[8:1]/5,,,,7b,,,7,6-1[8:1],,2,,3/6,,
4,,5-1[8:1],,,,7b/5b,,,7,8-4[8:1],,3,,8/2,,1,,
5/2,,3,3,8h[8:2],,,,B7,,,,3,,4,,
3,,4,,3-8[8:1],,,,6,,6,,7-4[8:1],,,,
B2,,,,B5,,,,2,,,,3,,5,,
3,,4,,3-7[8:1],,,,6,,6,,5-8[8:1],,,,
B1,,,,7/4,,,,3h[16:1],,,,5h[16:1],,4h[16:1],,
7h[16:1],,3h[16:1],,2h[16:1]/6h[16:1],,2h[16:1]/6h[16:1],,{32}1bx-5b[8:1],2x,3x,,7bx,6x,5x,,1bxw5[8:34],,,
&inote_6=
