&title=PANDORA PARADOXXX
&artist=削除
&first=0
&des=hana
&lv_5=14+
&inote_3=
&inote_5=(150),,,,,,,
{8},{32},7/8h,1V35[1:1]/6h,2h/5V71[1:3],
{1}4h/3,{2},,5h,5h,6h,{24}1,7s3[6:1],1,7,1,7,2w6[8:1],,,,,,
{16},,,,4<8[4:1],,25,,1,2,3,4,5,,12,,3>8[4:1],,25,,7,6,5,4,3,,1-5[8:1]/3,,1,,1/6V84[4:1],,,,5,,4,,3,,2,,12,,3,8,5,6,
4h[8:1],,5,,6<1[4:1]/5,,7/3,,2,3,4,5,6,,4,,3>8[4:1]/5,,26,,7,6,5,4,3,,3-8[8:1],,,,7,,6,,5,,34,,25,,3,7,4,8,{32}5,6,7,8,1,2,3,4,
{16}5/8,,8,6,8,,37,,3,5,3,,3-1[8:1]/4,,1V75[4:1]*-6[6:1],,8/3,,,,,,,,
{24}3,4,3,{16}4,3,{24}5,4,5,{16}4,5,{24}6,5,6,{16}5,6,4,3,2,1,48,37,26,15,
{4}4/8s4[4:1],8bpp6[4:5],,,5h[1:1],,,,{16}7-5[16:3],,,5-3[16:3],,,3V17[8:2],,,1,,,5,4,3,2,{32}1v4[8:1]/6,5,4,3,2,1,8,7,{4}1s5[8:1],
(200){8}1b/8b,,7h,,6h,1h,2h,5h,43,{16}2b,2b,7h,,8h,,{12}4v3[4:1]/6,4/6,,{8}8h,8h,7h,6h,{16}4,5,4,5,4-2[8:1],,4-6[8:1],,,,,,
1>4[8:1],,8,8,1,,7,,6h[8:1]/5h[8:1],,,,34,,{24}2,4,2,4,,,{16},,7,1,7,1,{8}6-1[8:1],6,4,5,{12}2,3,4,1,2,3,8,1,2,37,48,15,
(150){8}2bV48[4:1]/6b,2,5,5-7[8:1],7-3[8:1],5,1,1,{16}1-5[8:1]/2,3,4-8[6:1]/8,,1,,4,,
{8}1>7[2:1],,7,8,1,2,3,3,{32}5,4,5,4,6,,,,{24}3,4,2,6,5,7,
{16}1b-6[16:3],,8,6V84[4:1],1,,5,,,,6,,7,,8,5,8h[24:1],,1,,2,4,35,,26,,1,1,6,,8V25[4:1]/7,,,,7,,8,,
{48}1b>4[8:1],8,7,{16}6,,,1b-6[8:1]/3b,,,,7b/1b-5[8:1]*-4[8:1],,,,1b,,,,{8}78,6,{16}5,4,3,5,15,,2,6,3,7,4h[8:1],,{24}6,7,8,5,4,3,5,6,7,
{16}2/8-4[8:1],,3,8,2v1[8:1]*v5[8:1],,2,,,,,,{16}6/2-5[8:1],,7,2,8v2[8:1]*v6[8:1],,8,,,,,,
34,,5,2,6,,7,7,8,8,1,1,{24}2,3,4,{24}5s1[8:1],6,7,8,1,2,3/5,,,,,,,,,
{32}2b,,4,,3,,6b
,,4,5,4-6[16:1],,7b/3,,,,,,,,,,,,
7b,,4,5,4,,6b,,3,,4-8[16:1],,2b/5,,,,,,,,,,,,{16}1b,4,3,8b,5,5,2b,4,4,7b,5,6,{32}2b,,4,3,4,,1b,,6,5,6-4[16:1],,7/3b,,,,{4},
{8}1bs5[16:1]/2b,1bV73[8:1]/2b,,,,{8}5b-8[16:1]/6b,5b[8:1]/6bz2[8:1],,,,
{16}1b-6[200#8:1],,,3b-8[200#8:1],,,5b-2[200#8:1],,,7b,,,{24}1h[2:1]/7b,6,5,{32}4,3,2,,{48}8,7,6,5,4,3,2,,8,7,6,5,{8}4w8[16:1],,
4b,,{16}2>1[4:1]/6,7,8/2,,,,,,4-8[8:1],,8V61[8:3],,2-4[8:1],,2,,,,,,5>3[8:1],,6,5,7,,8<5[8:1],,1,,28,,4,,4<7[6:1],,4>1[6:1],,,,,,,,
{4}8b<5[4:5],,{48},,,,,,,,,,2,3,{1}4>8[8:5],
{24}6,5,6,{16}5,6,{24}4,5,4,{16}5,4,{24}3,4,3,{16}4,3,4,5,6,7,48,15,26,37,4w8[8:1]/8,,,,,,,,
{4}6v3[8:1]/2V46[4:1],2/6-1[8:1],1,{32}28,37,4V68[8:1]/6,5,4,3,2,1,{4}8/4,{32}5,4,3,2,1,8,7,6,5/4-8[8:1],3,2,1,8,7,6,5,4,,,,,17,26,35,{4}4,
2v8[8:1]/6v8[8:1],26,{32}71,62,5V31[8:1]/3,4,5,6,7,8,{4}1/5,{32}4,5,6,7,8,1,2,3,4/5-1[8:1],6,7,8,1,2,3,4,5
,,,,,8v5[100:1]/2v5[100:1],73,64,{4}5,
{12}3b,,3,4,35,,56,,57,6,35,,24,2,57,7,1h[12:1]/8h[12:1],,{24}2,3,4,1,2,3,6,5,4,8,7,6,{24}2/5h,3,4,5,2h/6,7,8,1,2/6h,3,4,5,
{48}6/8,7,6,5,4,3,2,1,8,7,6,5,4,3,2,1,8,7,6,5,4,3,2,1,{4}8s4[8:1]/4s8[8:1],,{16},,3h,4h,2h,6h,5h,7h,
{48}8b/1bV37[4:1],27,36,{16}45,,,7V51[4:1],6,5V71[8:1],,{8},,,2/6V84[16:3],,3,5,{16}5-1[8:1],1,5,,8,,7,,
{48}2b/8bV62[4:1],37,46,{16}5,,,2V48[4:1],3,4V28[8:1],,{8},,,7/3V15[16:3],,5,6,{16}78,1,2h[8:1]/6,,{24}5,4,3,2,1,8,
{48}7b/1bV37[4:1],62,53,{16}4,,,7V53[24:5],6,5V71[6:1]*V31[6:1],,{8},,,7/3V57[4:1],,7-3[8:1],8,{16}1,1,,8,8,,1,,
{48}2b/8bV62[4:1],37,46,{16}5,,,2V46[24:5],3,4V28[6:1]*V68[6:1],,{8},,,2/6V42[4:1],,2V86[4:1],2,1,,{16}4,3,2,,
{48}8,17,26,35,4>5[4:1],,{8},,,,4,34,2V48[4:1]/3,,1,8,7-2[8:1]*-4[8:1],,,,
1b,{16}2,2,4,3,5,4,6,5,7,7,8,6,{24}1b,2,3,{16}6,5,{24}7,8,1,{16}4,4,{24}6,5,4,2,3,4,7-3[8:1],6,5,1,2,3,
{8}7b/4,5,{16}14,38,27,,1,,6,6,{32}8,7,6,5,{16}4/8,8b-4[200#8:1],,1,1b-5[200#8:1],,7,7bpp8[6:1]*qq6[6:1],,,,,,,,,
2/4,,2V46[4:1],,2/8,7,{4}6-2[6:1]*V82[6:1],,7/4>1[8:1],{8}6,5,{16}4s8[8:1]*z8[8:1],4,,,,,,,
15,,1,3,1,,26,,6,4,6,,6-8[8:1]/5,,8V24[4:1]*-3[6:1],,2/6,,,,,,,,
{24}7,8,7,{16}8,7,{24}1,8,1,{16}8,1,{24}3,1,3,{16}1,3,1,8,7,6,15,48,37,26,1w5[8:1]/5,,,,
{4}1bpp6[4:3],,,5>6[2:1],,5s1[4:1],,
{12}7b>2[4:1],,3,3,3,,4>1[4:1],,5,5,5,,6<8[8:1],,5,5,4,4,3>8[8:1],,7,6,5,,
{12}4-6[8:1],,,,3-1[8:1],,,,7-1[8:1],,,,{12}2-5[8:1],,,6-2[8:1],,,1-5[8:1],,,7-3[8:1],,,{6}6,5,4,34,
(225){16}2h[16:3],,,4h[32:7],,,3h[32:8],,,6h[32:9],,,5h[32:8],,,,
{8}7pp3[1:1],,,,5,,,,5,,,,2qq6[1:1]/4,,4,,3,,3,,2,,2,,1,1,1,5,5,5,4,4,6,3,7,2,
8bV64[8:1]/1b,,,1bV35[8:1],,,8b-4[8:1],,,1b,1-5[8:1],1,
8b/1b,,7V51[4:1],6h[24:1]/2h[12:1],7,4,3h[16:1],2h[16:1],8,7,16,25,
{16}3,4,3,4,2,5,2,5,1,6,1,6,2,8,2,8,{8}2b-5[8:1],8b-6[8:1],2b,8b,
2>4[8:1],1,8,7>2[8:1],6,5,4b,3b,5-1[8:1],2-5[8:1],5,2,8-4[8:1],3,8/2,1,{16}7b,8b,7b,8b,6,,1/5,,2,4,3,4,2,,8,,
7h[24:1]/1h[12:1],,6h[24:1]/2h[12:1],,{8}7-4[8:1],4,3/7b,2-5[8:1],6,7/2b,8-4[8:1],1,8b/2w6[16:12],,2b,2b,2b,2b,
{1}2b>2[4:6]*<2[4:6],,
{8},8b-4[32:1]/1b-5[32:1],1b/8b,
