&title=Secret of my heart
&artist=棗いつき
&first=0.171
&des=Sougetsu030
&lv_5=13
&des_5=Sougetsu030
&inote_5=
(128){4},,,,{2}Cf/2qq7[4:5],
6h[4:1],
5h[4:1],{4}4qq5[1:1],5,
{1}6pp5b[2:1],
{16},,E3,B3,{8}B4,E8,{2}Cfh[2:1],
{4}7xpp2b[4:5],1h[8:1],2h[8:1],3h[8:1],
4h[8:1],5h[8:1],4v2[8:1],1V75[8:3],
3,3,4h[4:1],E7fh[1:1],
{2}E3fh[4:3],Cfh[4:1],
{8}1-5[16:1],8,{4}1/7h[4:1],{8}3h[4:1],B2,5h[4:1],B6,
8-4[16:1],6,8,7,2-5[16:1]*-6[16:1],1,{4}2,
{8}8-4[16:1],3,{4}8/2h[4:1],{8}6h[4:1],B7,4h[4:1],B3,
1-6[16:1],3h[8:1],1-5[16:1],2,7-3[16:1]/1-4[16:1],8,{4}7/1,
{8}6pp3[8:5],2,6,4,{4}4h[8:1],1h[8:1],
{8}2pp7b[8:5],6,2,8,{4}8h[8:1],5h[8:1],
8h[8:1]/6h[8:1],7h[8:1]/5h[8:1],{8}4/6h[8:1],4,8/3h[8:1],8,
{4}B3h[1:1],7x-5[16:1],E4/7x-1[16:1],7x/B4,
{8}Cf/E4,,{4}8h[2:1],3,5,
{8}8/7V53[4:1],,,2,{4}2h[4:1],8>4[4:1],
4<8[4:1],8,2h[1:1],E1,
E3,E5,E7h[2:1],E5h[4:1],
E6f,1h[2:1],6,4,
{8}1/2V46[4:1],,,7,{4}7h[4:1],1pp5b[16:5],
{8}1,8,{4}7V13[4:1],3V57[4:1],7,
{8}1<3[8:3],1,{4}7h[2:1],{8},,,5/2<8v5b[4:1],
{2}5/2,{4}4/7p2[16:3],{8}2,1,
8>5[4:1],8,{4}5p1b[8:1],{8}6h[4:1],,,1/7>1v4[4:1],
{2}7/1,{4}5/2q7b[16:3],{8}7,8,
1<4b[4:1],1,{4}4q8[8:1],3,1>6b[4:1],
6/1,8<3[4:1],8/3,1>6[4:1]*>6[4:1],
{2}1/Ch[1:1],{4}E4,E3,
E2h[4:3],E5/B5,{8}E7/B7,,,8/1x,
8/1x,7/2,{4}3/6V47-1b[4:1],{8}3,3,2-6[16:1],2,
{4}A2f/5b-1[16:1],A5f/4bV28[16:3],8V64b[16:3],4,
{8}7-4[16:1],3-8b[16:1],7,3,{4}6-8[16:1]*-4[16:1],6-2[16:1],
A6f/1b>6b[4:1],6>1[4:1],8-5[16:1],8-4b[16:1],
6/8<3[4:1],3<8b[4:1],8,{8}2h[4:1],1,
8-5[16:1],7,{4}8/6<4[4:1],4q6[4:1],{8}8,1,
2,2h[8:1],{4}B7/B8/E8h[4:1],5V31[16:3],{8}5,6,
{4}7<3[4:1],{8}3>6[16:5],2,1h[4:1],,,1pp1[8:3],
{4}5pp5b[4:1],{8},,,,7-5[16:1]/2-8[16:1],3/8,
{4}7b>4[4:1]/2b-6[16:1],7b/2b,5x-1[16:1],5/6>3[16:1],
6/2-5[16:1]*-7[16:1],2,{8}4>1[16:1]/8<5[16:1],5/1,{4}8/4qq4b[4:1]*pp4b[4:1],
{2}A4f/D5/D4,{8}5/3-1[16:1],6,3/7-4[16:1],8,
7/2-6[16:1],1,2/5-1[16:1],4,{4}5/2V46[16:3],{8}2,7,
{4}7-3[16:1],7-5[16:1]/2-8[16:1],2/7pp4[4:1],{8}4x,3,
2x-4[16:1]*-5[16:1],1,{4}2V86[16:3],2/6>3[8:1],{8}1,1,
{4}8/2h[2:1],B7h[2:3],B6h[4:5],B2h[1:1],
{2}B3h[4:3],Ch[4:1],
{48}1x/8xv2>3-5-7>8b[8:11],B1,Cf,B5,{1},{4},{16},,{24},{2}2h[4:5],
{1}1-3-7-5-8-4-1-5b[4:5],
{4}3xV16[4:1],{8},,,,7/5,6/4,
5/3,5h[8:27]/3<1q3[8:9],,,,,,,,,,,,,E3,
E4,
,,,,,,E8,E7h[8:7],
,,,,,,{4}5x<2<5[4:7],
2,2,3,3,
4,4p5b[8:1],,4x>7>4b[4:7],
7,7,6,6,
5,5<8[8:1],,1xw5[16:1],
1b/Cf/B6/B5/B4,3xh[8:1]/7xh[8:1],5h[8:1]/1h[8:1],4/8w4[16:1],
8b/Cf/B5/B4/B3,6xh[8:1]/2xh[8:1],8h[8:1]/4h[8:1],1-6[16:1]/5-2[16:1],
{8}5b/B8f/B4f/1bV74V26b[2:1],,,,,,,4/8,
3-5[24:1]/7-1[24:1],6/2,{4}7pp4b[16:5]/3pp8b[16:5],,,E7h[2:1]/B7h[4:3]/B6h[1:1],
E3h[1:1]/B2h[4:5]/B3fh[2:3],,,,,6-4[16:1],
6-8[16:1],
6b/1bh[8:3],{16}3,4,5,6,2,3,4,5,8pp3[16:5],7,6,5,
{4}4h[8:1],5x-1[16:1],5/4-2[16:1],{8}4/7,8,
1-4[16:1],2,{4}1/3>5[4:1],5p3[4:1],{8}1,8,
7,7h[8:1],{4}B2/B1/E2h[4:1],4-6-2-8b[8:3],{8}2,3,
{4}3h[4:1],{16}7,6,5,4,8,7,6,5,{8}4h[8:1],8qq5[8:3],
4qq1b[4:1],,,,,6/2,{4}6-8[16:1]/2-8[16:1],
6-4[16:1]/2>7[4:1],6/2,1-5[16:1],{8}1/4-8[16:1],3,
{4}4/7-4[16:1],7>2[16:1]/2p6[16:1],7/2,5xqq5b[4:1]*pp5b[4:1],
{2}A5f/D5/D6,{16}4/5,3,2,1,4q5[4:1],5,6,7,
{2}8h[4:1],{4}7h[4:1]/6-2[16:1],{8}6,8,
{4}1b/7b<3[4:1],7/3<7[4:1],1pp5[4:1],{8}1,8,
7V13b[4:1],7,{4}3V57[4:1],7,{8}1,2,
{4}3/8h[4:1],{24}4x,5x,6x,7x,8x,1x,5x/2x,4x,3x,2x,1x,8x,7x/4x>4b[2:1],5x,6x,7x,8x,1x,
{2}2xh[4:1]/A4f/D5/E5,Cfh[4:1],
{8}8-4[16:1],1,{4}8/2h[4:1],{8}6h[4:1],B7/E7,4h[4:1],B3/E4,
1-5[16:1],3,1,2,7-3[16:1]*<4[16:1],8,{4}7,
{8}1-5[16:1],6,{4}1/7h[4:1],{8}3h[4:1],B2/E3,5h[4:1],B6/E6,
8-3[16:1],6h[8:1],8-4[16:1],7,2-6[16:1]/8-5[16:1],1,{4}2/8,
{8}4h[4:1],2,5h[4:1],7,1q5[16:1]*>4[16:1],2/8,{4}1,
{8}8h[4:1],6,1h[4:1],3,5q1[16:1]*<8[16:1],6/4,{4}5,
{8}1x-6[16:1],2,3-8b[16:1],4,5-2[16:1],6,7-4b[16:1],8,
{4}1h[8:3],5h[8:1],{16}2-7[16:1]/6-3[16:1],7/3,8/4,5/1,{4}E2f/E6f,
{1}6bxh[8:7]/4b<3b[8:7],
5-7>8v2>3-5[4:3]*-3>2v8<7-5b[4:3],
E
