&title=鏡の世界には私しかいない-another version-
&artist=monet
&first=0.02
&des=魔法少女莉露露
&lv_5=12+
&inote_5=(150)
{4}
,,,,,
{8}
,4h[4:1],,,,,4,,,3/5,3h[4:1]/5h[4:1],,,,,,,4h[4:1]/6h[4:1],,,,,3,,,
{16}
6h[16:3],,,5h[16:3],,,3h[16:3],,,2h[16:3],,,6,,7,,
{8}
8-3[8:1]/1,,,4h[2:1],,,5,6,7-4[8:1],,,3h[2:1],,,4,2,1-6[8:1]/8,,,5h[2:1],,,4,3,2-5[8:1],,,6h[2:1],,,5,7,8v3[8:1]/1,,,4h[2:1],,,5,6,7v4[8:1],,,3h[2:1],,,4,2,1v6[8:1]/8,,,5h[2:1],,,4,3,2v5[8:1],,,6h[2:1],,,5,7,1z5[4:6]/8,,,,,,,,,,,,,,,,6h[8:5],,,,,5h[8:3],,,6h[8:5],,,,7,7h[8:3],,,8h[8:5],,,,,6h[8:3],,
{16}
,,5h[16:19],,,4-8[8:1],,,,,
{8}
,,,,
{16}
3,,,3h[16:7],
{8}
,,,4h[4:2],,,2,2h[8:7],,1,,3,,4,4h[16:3],
{16}
,5-1[8:1],,,7,,6,,,,2/4,,,,1V35[6:1]/5V71[6:1],,
{8}
,,,,,7,,
{16}
3,,,5/4,,,6,5,7h[8:1],,8b,,,,2,,6,,,3/4,,,5,4,6h[8:1],,7b,,,,1,,7,,,4/5,,,2,5,3h[8:1],,2b,,,,7,,3,,,5/6,,,3,5,4,6,1b-6[8:1],,,,6,,4z8[8:7],,,,,,
{8}
3h[8:5],,,,,,,2,1/2,3,3/5,6,7/6,1h[1:1],,,,,,,,
{16}
81b,,,2b/7b,,,3b/6b,,
{8}
,4-8[8:1]/2,5,
{16}
6>7[8:3],6,
{8}
,,,,,2,1-4[8:1],8,
{16}
1b/7-3[12:1],,,5/7b,,,
{8}
4>6[2:1],,8,6,
{16}
4,4<1[16:10],
{8}
,,,
{16}
1,,2,,,,3,,,4q3[2:1]/5p6[2:1],,,
,,,,,,,,,,,,
{16}
7,,8<5[8:1],,2,,3-7[8:1],,4,,6b,,,,,,
{16}
1,8,2<7[8:1],,6,,5-1[8:1],,4,,2b,,
{8}
,,7<1[8:11],7,,,,,,2>6[8:3],2,,,,,
{8}
,5-1[8:1]/7,4,
{16}
3<2[8:3],3,
{8}
,,,,,7,8-5[8:1],1,
{16}
8b/2-6[12:1],,,4/2b,,,
{8}
5<3[2:1],,1,3,
{16}
5,5>8[16:10],,,,,,,,,,,,,,,7h[1:1],,6b,,,8b,,,2b,,,,4b,,,,1bz5[1:1],,8,,,
{32}
,
{16}
,,,,7,,,,,,,,6,,,,,,,,
5h[8:2],,,,4,,3,,2,,2/1,,2,,8/2,,3,,4/3,,3,,5/3,,6,,6/5,,6,,4/6,,7,,8/7,,7,,1/7,,2<3[8:9]/8h[8:5],,,,,,,,,,,,,,,,,,,,,,8>6[4:1],,,,,,,,,,
1h[4:1],,,,7,8,6<1[8:1],,,3,,,5,,,,7h[4:1],,,,4,5,3<6[8:1],,,6,,,8,,,,2h[4:1],,,,5,4,6>3[8:1],,,4,,,2,,,,8h[4:1],,,,2,1,3-7[8:1],,,7,,,5,,,,
6,8,6,,6,8,6,,6,1,6,,6,1,6,,6,2,6,,6,2,6,,6,3,6,,6,3,6,,6,4,6,,6,4,6,,6,5,6,,6,5,6,,8b/7b,,,5b/1b,,,7b/3b,,
{8}
,4-8[8:1]/2,3/5,
{16}
6<1[8:1],6qq2[8:3],
{8}
,,,,,7,8<5[8:1],1,
{16}
8b/2-6[12:1],,,4/2b,,,
{8}
5<3[2:1],,1,3,
{16}
5,5>6[16:10],
{8}
,,,
{16}
,,7,,,,5,,,3>6[2:1]/4q5[2:1],,,
,,,,,,,,,,,,
{16}
7,,8<5[8:1]/4,,2,,8/3-7[8:1],,4,,6b/3b,,,,,,
{16}
1,8,2<7[8:1],,6,,2/5-1[8:1],,4,,2b/5b,,
{8}
,,2pp5[4:5],2,,,,,,1<4[8:3],1,,,,,
{8}
,5-1[8:1]/7,4/6,
{16}
3>8[8:1],3pp7[8:3],
{8}
,,,,,2,1>4[8:1],8,
{16}
1b/7-3[12:1],,,5/7b,,,
{8}
4>6[2:1],,8,6,
{16}
4,,4<3[16:9],,,,,,,,,,,,,,4,,7b/1b,,,6b/5b,,,4b/2b,,,,8b/3b,,,,2b/1bs5[1:1],,8,,,,
{16}
,,,,7,,,,,,,,6,,,,,,,,
4h[8:2],,,,6,,3/5,,2,,1/2,,3,,3/4,,2,,2/8,,3,,3/5,,6,,6/5,,7,,7/8,,6,,6/4,,7,,7/1,,8<6[8:1],,8,,,,1,,7p3[8:1],,,,2-5[8:1],,2,,8<5[8:1],,8,,,,2,,8v3[8:1],,,,1-4[8:1],,1,,7<5[8:1],,7,,,,2,,8p4[8:1],,,,3>8[8:1],,3,,7<4[8:1],,7,,,,2,,6>3[8:1],,6,,1>6[4:1],,1,,6,,6,,,,8,,2q6[8:1],,,,7-4[8:1],,7,,1>4[8:1],,1,,,,7,,1v6[8:1],,,,8-5[8:1],,8,,2>4[8:1],,2,,,,7,,1q5[8:1],,,,6<1[8:1],,6,,2>5[8:1],,2,,,,7,,1-5[8:1],,,,7s3[8:7],,7,,,,,,,,,,,,,,,,,
