&title=[X]
&artist=Blacklolita
&first=0
&des=Naaaaaaa
&des_5=
&lv_5=14.9
&inote_5=(162){4},{1},{4},,,{32}7b/1b,
6/2,3/5,4h[32:47],,,,,,,,,,,,,{2}8h[16:25],
{8},,,,,6h[16:15],,,,4h[16:23],
,,,2h[8:11],,,,,,,,4-8[8:1],
{16},,,,,1,
7,1,7,2,6,2,6,3,5,3,5,4,6,4,
6,3,7,3,7,2,8,2,8,2,3,4,5,6,7,8,
{32}1,8,7,6,5,4,3,2,1,8,7,6,5,4,3,2,1,8,7,6,5,4,3,2,1,8,7,6,5,4,3,2,
{4}1-5[8:5],{8}5,6,{2}7-3[8:1],
{4}2/8-4[8:1],{8}8,2-4[8:1],,6/2-8[8:1],,2-6[8:1],
4-8[8:1],2,{4}4,{8},7-3[8:1],5-1[8:1],7,
{4}5,{8}1,7-5[8:1],,3/7-1[8:1],,7,
{2}5h[8:3],8b<5[8:1]/4b>1[8:1],
{4}2/8-4[8:1],{8}8,2-4[8:1],,6/2-8[8:1],,2-6[8:1],
4-8[8:1],2,{4}4>2[8:1],4/6<8[8:1],6,
3b/7b,{12}6/4,6/4,3/5,{6}3h[12:1]/5h[12:1],2h[12:1]/1h[12:1],8h[12:1]/7h[12:1],
{2}4b-8[8:1]/6b-2[8:1],6<8[8:1]/4>2[8:1],
{8}5b/4b,,,3-7[8:1],5<7[8:1],3>1[8:1],5-1[8:1],3,
{2}5,{8}4/6,7/8,1/2,3/5,
6<8[8:1]/4>2[8:1],5,{4}6-2[8:1]/4-8[8:1],{8}6/4,,,1-5[8:1]/7-3[8:1],
{2}1/7,{12}2,8,4,7,1,5,
{4}3-7[8:1],3/5-1[8:1],5/4-8[8:1],4/6-2[8:1],
6/1-5[8:1],1/8-4[8:1],4/8,2/6h[4:1],
{12}1b,1,1,3,3,3,5b,5,5,7,7,7,
7/8b,7/8b,7/8b,5b/6,5b/6,5b/6,3/4b,3/4b,3/4b,1b/2w6[8:1],,,{1}2b>2[4:13]*<2[4:13],
{4},,,,,,,,,,,3/6,
{16}8,7,6,5,8-3[8:1]/4-1[8:1],7,6,5,{2}4/8b,
{16}1,2,3,4,1-6[8:1]/5-8[8:1],2,3,4,{2}5/1b,
{16}4/8,1,2,3,4/8,5/1,6/2,7/3,4/8,5,6,7,8/4,1/5,6/2,7/3,
{4}8/4-8[8:1],5-1[8:1],5b,2,
3/8,{32}3/8,4/7,{16}6h[16:5]/5h[8:1],{32},,,4,3h[16:5],,,,,7,{16}8h[16:5],{32},,,2,{8}1h[16:5],
{32},7,{16}6h[16:5],{32},,,2,3h[4:1],,,,,5,{16}4h[8:1],{32},2,{16}1b,{32},,,,1,2,3,4h[32:13],,,,,{16}8h[4:1],
,,,,,,6,6,6,6,6,6,6,6,5/7,
,6,6,6,6,5/7,,,{4}2b/8b,4b/5b,
6/1,{32}6/1,5/2,{16}3h[16:5]/4h[8:1],{32},,,5,6h[16:5],,,,,2,{16}1h[16:5],{32},,,7,{8}8h[16:5],
{32},2,{16}3h[16:5],{32},,,7,6h[4:1],,,,,4,{16}5h[8:1],{32},7,{16}8b<5[8:1],,,,,,,{4}2>5[8:1],
2,{8}1/7,{16}1,5,{8}3,4/5,
2/8,{16}8,4,{8}6,4/5,3-7[8:1]/6-2[8:1],1/8,{4}3b/6b,
1-5[8:1]/8-4[8:1],1/8,2b/7b,{16}8,8,8,8,
8,8,8,8,8,8,8,8,{4}1b/7b,{8}4/5,4/5,
{16}1,1,1,1,1,1,1,1,1,1,{8}2b/8b,{12}1/2,1/2,1/2,
7/8,7/8,7/8,1,7,5,8,2,4,3,8,1,
{4}3b/6b,1-6[8:1]/7-2[8:1],1b/7b,{12}4/5,4/5,4/5,
4/5,4/5,4-7[8:1]/5-2[8:1],4/5,4/5,4/5,,,,{4}8-3[8:1]/2-7[8:1],
8b/2b,{8}4/5,4/5,,5,4,6/3,
7,2,8<5[8:1],1v4[8:1],8v5[8:1],1>4[8:1],8,1,
{2}8b,1h[16:23]/7h[16:15],
,3h[16:15],
5h[16:23],7h[16:23],
,1h[16:15],
5h[16:9],{4}3h[16:15],{12}5,6,7,
{2}8h[16:15],2h[16:15],
6h[1:2],4h[1:1],
{24},,,,,,,,,,,,,3,2,1,{12}8,8,8,8,
{8}8-4[8:1],1,{4}2/8,{8}5-1[8:1],6-2[8:1],5,6,
,8/4,,3,2,1,8,7,
6h[8:1],,,1>4[4:1],,4-8[4:1],,8<5[4:1],
,5-1[4:1],{16},,8,7,6b,,,6b,,,{8}6b,
(164){16}2,4,3,6,4,5,3,5,4,7,5,6,3,1,2,7,
(168)1,8,2,8,1,6,8,7,2,4,3,5,4,6,5,7,
(170){32}5,6,7,8,1,2,3,4,5,6,7,8,1,2,3,4,5,6,7,8,1,2,3,4,5,6,7,8,1,2,3,4,
(172){8},{32}1,8,7,6,{16}5,{32}3,2,1,8,,,6,5,{16}4,{32},,,2,{8}1,3b/7b,
8-4[8:1]/2-6[8:1],1,{4}2/8,{8}5v8[8:1],4v1[8:1],5,4,
,3/7,,2/8-4[8:1],1,8/6-2[8:1],7,6/4-8[8:1],
5,4>2[8:1]/6-2[8:1],,6<8[8:1]/4-8[8:1],,4/6,,2,
{16}8,8,7,7,6,6,5,5,{4}4w8[8:1],4b,
{8}1-5[8:1]/7-3[8:1],8,{4}1/7,{8}2v5[8:1],6v1[8:1],2,6<5[4:1],
,6,,8,{4}8w4[8:1],8,
{8}4,5,3,2v8[8:1]/6v4[8:1],,2/6,{32},,,,7/3,2/6,1/5,8h[4:3]/4h[4:3],
{1},
{8}2/6,2/6,{16}7,8,,4,{8}3,{16}5,1,{8}5,2/6,
1-5[8:1],1,6-2[8:1],6,4-8[8:1],3-7[8:1],4,3,
8,1-5[8:1],8/2,1,6,{16}2,4,{8}3,1/5,
{16}2-6[8:1],4,3,4,{4}2,{2}8bw4[8:1],
{4}2>5[8:1]/6<1[8:1],2/6,1v6[8:1]/5v2[8:1],1/5,
{8}2/6,3/7,{4}4v1[8:1]/8v5[8:1],4/8,1/5,
{32}4h[4:1]/7b<4[8:1],,,,,,,,,3,2,1,,,,,4h[4:1]/8b>3[8:1],,,,,,,,,5,6,7,,,,,8h[4:1]/4h[4:1],
,,,,,,,,7/3,6/2,5/1,{8}4/8,{4}4/8,2v5[8:1]/6v1[8:1],
2b/6b,4/8z4[4:1],3b,1,
{8}3-7[8:1],4/5,{4}6-2[8:1],{2}4-8[8:1],
(180){4}3-6[8:1]/7-4[8:1],3-8[8:1]/7-2[8:1],3x/7x,3b/7b,
{16}4,7,5,7,6,7,6,7,{4}6h[4:1],7V51[4:1],
1V37[4:1],4,1b,{8}4/6,5/7,
3/5,2/4,{4}5h[4:1]/1-5[8:1],1b,4-8[8:1]/6-2[8:1],
6-4[8:1],6/1-5[8:1],1b/8,2/6,
{16}5,2,4,2,3,2,3,2,{4}3h[4:1],2V48[4:1],
2/6,1-4[8:1]*-6[8:1],1b,{16}5,5,5,5,
5,5,5,5,5,5,5,5,{4}4/6,2V48[2:3]/8V62[2:3],
{1}8b/2b,
{8},,,,,,,,5/6,
56,56,56,78,78,78,78,12,12,
12,12,34,34,34,34,
{16}6,5,6,5,6V84[16:3],4,6,4V26[16:3],{2}6b,
{16}3,4,3,4,3V15[16:3],5,3,5V73[16:3],{2}3b,
{16}6,5,7,3,4,2,6,4,8,3,5,1,
{32}2,3,4,5,6,7,8,1,2,3,4,5,6,7,8,1,2-6[8:1]/6-2[8:1],3,4,5,6,7,8,1,
{1}2bv4[8:1]/6bv8[8:1],
E
