&title=I swear
&artist=sweet ARMS
&first=0
&des=Melt℃
&lv_5=13
&lv_7=改13?
&inote_5=(168)
{1},
{4}8-5[1:1]*>5[1:1],,,,,,4-1[1:1]/1-6[1:1],,,,,,
{4}8-5[1:1]/3-5[1:1],,,,,,8V25[16:6]*>4[16:6],,,8V63[16:6]*<4[16:6],,,
{8}5h[2:2],,4,4,,3,3,,2,2,,,
{8}1h[2:2],,8,8,,7,7,,6,6,,5,
{8}1<5[4:1],,5V31[4:1],,1V75[4:1],,5>1[4:1],,1b,,,,,,,,,,,,
{8}6/5,4,3,2,1>6[16:13],,,,,,
{16},,1,8,7,,,,
{8},,5h[8:3],,4h[8:1],,
{8}5h[8:1]/4h[8:1],,5h[8:1]/3h[8:1],,5h[8:1]/2h[8:1],,5h[8:1]/1h[8:1],,
{8}1,3/5,8,4/6,2,4/5,7,4/5,2,
{8}2/6,3/7,4/8,8h[4:1]/4h[4:1],,,
{16}7/3,6/2,5h[4:1]/1h[4:1],,,,,,,,
{8}8h[4:1]/4h[4:1],,
{8},,3qq5[2:1],,,6h[8:3],,,,,
{8}4h[8:5],,5,6,6,7,8pp7[2:1]/4pp3[2:1],,,,,,,,,,
{8}1h[8:3]/5h[8:3],,,,
{8}6h[8:3]/2,3,4,5,
{8}6^1[8:3],,,1-4[8:3],,,4,,,,
{8}5,4,3,2,1,8,7qq2[2:1],,,,,,,,
{8}1/2,3,5/4<7[4:1],,4/3>8[4:1],,,,
{8}6h[8:3],,,1s5[2:1],,,,,,,
{8}5/6,4,5/6,7,5/6,4,6/5-2[8:3],,2,2-7[8:3],,,7-4[8:3],7,,,5,5,,,
{8}5h[1:1],,4,,3,,2,,1,,8,,7,6,5,4,3/6,,3/6>3[8:3],,3,3-7[8:3]*>8[8:3],,,,,,,,,,
{8}7/8,6,4/5,,3,5,4,,6,4,5/4,3,2,1,2/8,,
{8}1h[4:1],8,7,,6,4,5h[2:1],,4,3,2,1/8,7,6,4/5,,
{8}4h[4:1],2,1,,8h[4:1],6,5,,5,3,7,1h[4:1],3,5,7,,,4/5,,3/6,2pp4[8:5]/7qq5[8:5],,,,,,,,,,,
{8}4h[4:1]/5h[4:1],,,,3/5,1,4/6,8,3/4,1,5/6,8,2b/5b,7b/4b,1b/6b,8b/3b,,,,,
{8}5h[8:1]/1<6[8:1],,5h[8:1]/1>4[8:1],,5h[8:1]/1-6[8:1],,5h[8:1]/1qq4[16:5],,1,,
{8}5-8[8:1],5-2[8:1],,,,,5<1[4:1],,1b>5[4:1],,5b<1[4:1],,1b>5[4:1],,
{8}5,5,7-4[8:1]*<4[8:1],,7b-2[8:1]*>2[8:1],,7b,,
{8}4h[8:1]/8>3[8:1],,4h[8:1]/8<5[8:1],,4h[8:1]/8-3[8:1],,4h[8:1]/8pp5[16:5],,8,,,,
{8}4V28[4:1],2,8-6[8:1],,,,5h[4:1],,4h[4:1],,,,2/4,1/3,2/4,1-5[8:2]/3>8[8:2],,,,,
{8}8h[8:1]/4<6[8:1],,1h[8:1]/4-7[8:1],,2h[8:1]/4-8[8:1],,3h[8:1]/4pp1[16:5],,4,,,,,
{8}7/2,8/3,1/4,4<7[8:1]*>1[8:1],,4w8[8:1],,4,,,,
{8}1/3,2,4,3,4h[8:1]/5h[8:1],,5/7,6/8,
{8}7/3,6,5/1,6,7/3,6,5/1,6,4<8[4:1],,8<4[4:1],,4V61[4:1],,1,,,,
{8}8h[4:1],,2h[4:1],,4,,7/3,1/5,7/3,1/5,,,
{8}2/7-3[8:1],,7/2-5[8:1],,2/6-1[8:1],,6/3-7[8:1],,3/8-4[8:1],,8,,
{8}3-7[8:1]/2-6[8:1],,2b/3b,,,,
{8}1>5[4:1],,5<1[4:1],,1V35[4:1],,5V71[4:1],,1,,5,2h/6h,3b/7b,,,,
{8}1/8-5[8:1],,8/1>4[8:1],,1-6[8:1],,1-4[8:1],3,1,7,3-5[8:1]/8-5[8:1],,8b/3b,,
{8}3/6,,2/7,1>4[8:1]/8<5[8:1],,1b-5[8:1]/8b-4[8:1],,1b>4[8:1]/8b<5[8:1],,1b/8b,,
&inote_7=
