&title=lastendconductor
&artist=zts
&first=0.01
&des=VanillaIce
&des_5=VanillaIce
&lv_5=13+
&inote_5=(139){4},,,,{1}6b/2b-4p4pp4>3b[2:5],
{8},,,,,,,,,,,,,,,,2/6,
{16}5,4,{8}3/6,{16}4,6,3,7,2,8,{4}1/C,
2q5[8:3],{8}2,6,6,7,2/7v6-4-8[8:3],8,
7/1,,,1x,2/8,{24}3,4,3,{8}4-8[8:1],5,
4/6V85-1[8:3],5,{4}6/3,{8},4x,6/2v5>3-1[8:3],4,
2/5,,,8,7/1,{24}7,8,7,{8}8<4[8:1],1,
8/2,{16},,,,8,8,{8}7/1-5[8:1],8/2-4[8:1],1qq6[8:3],2,
{4}1,2,{8}2-4[8:1],4-8[8:1],8-6[8:1],6,
5w1[8:1],5,{4}5,{24},,,6,5,6,{8}5<8-4[4:1],4,
{4}5/3,{8}3,{16}1,1,{8}7-3[8:1],8-4[8:1],7,8x,
{4}6p4[4:1],{8}6,3,3,2,7/1>4q6[8:3],8,
1/7,,,8,1/7,{24}1,2,3,{8}4-7[8:1],5,
4/3v2-8-4[8:3],2,{4}3/4,{8},7,4/6-1-5-7[16:5],7,
6/4,,,3,2/8,{24}8,7,6,{8}5V31-7[4:1],4,
5/6,{16},,,,7,8,{8}1/2>5[8:1],3,2/1<6[8:1],8,
{4}1/2-6[8:1]*-5[8:1],2,{8}8/7-3[8:1],2/1-5[8:1],7,1,
7V13-5[4:1],1,{4}7/3,{24},,,2,1,2,{8}1V35[8:1],8,
{4}1/7-3[8:1],7/4>8[8:1],4/6q2[8:1],2/6,
{8}8b/4bq5[4:1],,,7,7h[4:1],5,1h[4:1],3,
{4}7h[4:1],{8}8-4[8:1],{24}8,7,1,{4}8x,{8}6/3q5[4:1],{16}3,4,
{8}3x,{16},,,,6,5,{8}6h[4:1],7,3h[4:1],2,
{4}6h[4:1],{8}4-8[8:1],{24}4,5,3,{4}4x,7/2q5[4:1],
{8}2/6,,,8,2/8h[8:1],5,7/1h[8:1],4,
{4}2/8h[4:1],{8}4z8[4:1],{24}5,4,5,{4}4,6pp4[8:3],
{8}6/3,,,1pp4[4:1],1,{16},,,,5,6,
{8}2/7-4[8:1],8,7/2-5[8:1],1,2/8x<5[8:1],8x>3[8:1],8x-4[8:1],8x,
8x,,,5,6/2v7[8:1],1,2/6v3[8:1],5,
{4}6/2,{8}1q3[8:3],{24}6,7,8,{4}1,5w1[8:1],
{8}5,,,1-5[8:1],1h[4:1],,,2/4,
7/8,{24}7/8V61[16:3],6/1,5/2,{8}4/3,8,5-2[8:1],7-4[8:1],5,7,
1w5[8:1],2/8,{4}1,{24},,,7,8,7,{8}8-4[8:1],7/1,
{4}8,{8}7/2p4[16:3],1,2/7,8,7,{24}1x/2x,3/8,4/7,
{4}5qq2[8:3]/6pp1[8:3],5b/6b,,7<8[8:3]/8>7[8:3],
{2}7b/8b,{8}E7,E3,E6,E4,
E5,Cf/1>1[8:55],,,,,,,,,{4}6h[8:1],
{8}7,7,8,8,
1,1,{4}2h[2:1],{8},,,2,
1,8,7,6h[8:1],,3,2,1,
8,7,,E5,,E3,,E1,
,E7,{4}3h[8:1],{8}3,4,5,6,
{4}3h[8:1],6h[8:1],{8}4,3,5,6h[2:1],
,,,,3h[8:1],4h[8:1],5h[8:1],6,
7x/1qq4[4:3],E8f/B7/B8/1qq5[8:5],,,,,,,,,{4}4p6[4:1],
{8}4,5,5,4,
4,8z4[8:3],{4}8h[2:1],{8},,,5/4h[4:1],
6,7,8/4,4/8h[8:1],,1/8h[4:1],2,3,
4/8,8/4h[8:7],,E7,,E5,,E3,
,E1,{4}6/2qq5[8:3],{8}2/6,7,6,6,
{4}3/7<4[8:1],3/7,{8}3,4,5,3/6h[8:3],
{48},,,,,,,,,,,,,,,,,,1x,2x,3x,4x,5x,6x,7x,8x,1x,2x,3x,4x,{8}5x,,,1,
Ch[4:15]/1x-3[8:1],,A1,,4x-2[8:1],,A4,
,1x-7[8:1],,A1,,6x-8[8:1],,A6,
,1x-3[8:1],,A1,,4x-6[8:1],,A4,
,5x-3[8:1],,A5,,2x-8[8:1],,A2,
,1x-3[8:1],,4/A1,,4-6[8:1],,7/A4,
,7-1[8:1],,2/A7,,2-4[8:1],,5/A2,
,5-7[8:1],,8/A5,,8-2[8:1],,3/A8,
,3-5[8:1],,6/A3,,6-8[8:1],,1/A6,
,1-3[8:1],,7-1[8:1],,5-7[8:1],,3-5[8:1],
,1-3[8:1],,7-1[8:1],,5-7[8:1],,3-5[8:1],
,1-6[8:1],,4-1[8:1],,7-4[8:1],,2-7[8:1],
,5-2[8:1],,8-5[8:1],,3-8[8:1],,6-3[8:1],
,8x-6[8:1],,A8/2-8[8:1],,A2/4-2[8:1],,A4/6-4[8:1],
,A6/8-6[8:1],,A8/2-8[8:1],,A2/4-2[8:1],,A4/6-4[8:1],
,A6/8-3[8:1],,A8/5-8[8:1],,A5/2-5[8:1],,A2/7-2[8:1],
,A7/4-7[8:1],,A4/1-4[8:1],,A1/6-1[8:1],,A6/3-6[8:1],
,A3/8-3[8:1],,A8/5-8[8:1],,A5/2-5[8:1],,A2,
{4}8x-4[8:1],8b/4w8b[8:1],,6b/2b,
{8}4/6,{16}1h[16:1],5,4,6,8h[16:1],5,3,6,2h[16:1],5,4,6,8h[16:1],5,
3,4,1h[16:1],6,4,5,8h[16:1],6,3,4,2h[16:1],6,4,5,8h[16:1],6,
3,5,1h[16:1],6,4,5,8h[16:1],4,3,5,2h[16:1],6,4,5,8h[16:1],4,
3,4,1h[16:1],5,4,6,8h[16:1],4,3,4,2h[16:1],5,4,6,{8}1h[8:1]/C,
{16},,7h[16:1],4,5,3,1h[16:1],4,6,3,7h[16:1],4,5,3,1h[16:1],4,
6,5,8h[16:1],3,5,4,1h[16:1],3,6,5,7h[16:1],3,5,4,1h[16:1],3,
6,4,8h[16:1],3,5,4,1h[16:1],5,6,4,7h[16:1],3,5,4,1h[16:1],5,
6,5,8h[16:1],4,5,3,1h[16:1],5,6,5,7h[16:1],4,5,3,{8}8h[8:1]/C,
2x,6h[4:3]/2xq5<5[2:1],,2,,,,,6,
2h[4:3]/6p4>4[2:1],,6,,,,,1,
5h[4:3]/1q3<3[2:1],,1,,,,,7,
3h[4:3]/7p4>4[2:1],,7,,,,,1,
5h[4:3]/1q1>1b[2:1],,1,,,,,7,
3h[4:3]/7pp4>4b[2:1],,7,,,,,2,
6h[4:3]/2V46V82>2b[2:1],,2,{4},,,{48}8x/4x,
7x,6x,5x,4x,3x,2x,1x,8x,7x,6x,5x,{4}4/2q5[4:1],{8}2/7,7h[8:1],
{16},,1,5,4,6,8,5,4,5,1,6,3,5,2,6,
1,8,2,7,3,6,{8}2/7p3[8:1],8,7/1>5b[8:1],2,1/7h[8:1],
{16},,8,4,5,3,1,4,5,3,8,1,6,4,7,3,
8,1,7,2,6,3,{8}5/4-8-3-1[8:3],,4/5,6,6h[8:1],
{16},,7,3,5,1,8,4,6,2,7,3,5,1,8,4,
6,2,7,3,5,1,{8}7/2p4[8:1],1,2/7<3b[8:1],8,7/1h[8:1],
{16},,2,6,4,8,1,5,3,7,2,6,4,8,1,5,
3,7,2,6,4,8,{8}2/7pp4b[8:3],,7/2,3,3h[8:1],
{16},,7,1,5,3,6,4,8,8,1,7,3,5,4,6,
2,2,8,1,7,2,{8}6/3-8[8:1],2,3/7q4b[8:1],6,7/1h[8:1],
{16},,3,5,1,7,2,8,4,4,5,3,7,1,8,2,
6,6,4,5,3,6,{8}7/2-6V84b[8:3],,2/6,5,5h[8:1],
,3/6,3/6,{16}4,5,{8}3/6,{16}6,5,{8}7/4,{16}3,4,
{8}2/5,{16}8,1,{8}2/7,{16}1/8,2/7,{8}3/6,{16}1/2,3/8,{8}4/7,{16}8/7,1/6pp1b[16:9],
{1}5/2pp5[2:1],
{48}1/5,2,3,4,5,6,7,8,1,2,3,4,8x,7x,6x,5x,4x,3x,2x,1x,8x,7x,6x,5x,{2}C,
{48}6b/2b-4-1<8-4-7<6-4<5b[4:11],E6/E3,E5/E4,A4f,
E
